[bittorrent] Jefferson Starship Majestic Theatre Detroit, Michigan 2/23/2006

Automated Mailer noreply-bt.e at etree.org
Sun May 31 15:21:47 UTC 2020


Band:           Other
Torrent Name:   Jefferson Starship Majestic Theatre Detroit, Michigan 2/23/2006
Uploaded by:    zmanatl
DB Link:        
Details:        http://bt.etree.org/details.php?id=609806

Contact the seeder at http://db.etree.org/zmanatl

If the link to this show does not work, it was probably removed for
being non-trade-friendly.

Description / text file:
-------------------------
Jefferson Starship
Majestic Theatre
Detroit, Michigan
2/23/2006

Source: Core Sound Cardioid Mics>Sound Devices 722 (24/96)
FOB/DFC/KFC/ZFC 50' From Stage, 4 1/2' High
DSP: Sound Devices 722>Sound Forge 10.0>CD Wave>flac(16)
ID3 Tagged In Foobar 2000
Recorded By: Z-Man 
Seeded By: Z-Man
A Team Dirty South Recording

Disc I 

01 Somebody To Love
02 Crown Of Creation
03 Good Shepherd
04 Right Now
05 ?
06 All Fly Away
07 Pride Of Man
08 While My Guitar Gently Weeps (Instrumental)
09 Loser >
10 Harp Tree Lament
11 Won't You Try/Saturday Afternoon

Disc II 

01 Greasy Heart
02 Jane
03 Sunrise >
04 Have You Seen The Saucers >
05 Have You Seen The Stars Tonight? >
06 Have You Seen The Saucers >
07 Who Do You Love >
08 White Rabbit
09 The Ballad Of You And Me And Pooneil >
10 Instrumental >
11 Your Mind Has Left Your Body
12 Band Introductions
Encore:
13 Banter
14 Diana >
15 Volunteers
Soundcheck:
16 *Who Do You Love
17 *Birdland

* Show Notes: They Let A Few Folks In Early For The Soundcheck. I Did Best I Could As I Hand Held The Mics Without Drawing Attention. It Is Muffled But Better Than Nothing. Mic Stands Were Not Allowed In. I Was Not Prepared With A Hat, So I Had To
Lay The Mics On The Soundboard And Only 4 1/2'. The Recording Itself Is Fair At Best By My Standard.  

Paul Kantner - Guitar And Vocals
David Freiberg - Guitar And Vocals
Slick Aguilar - Guitar And Vocals
Prairie Prince - Drums
Christopher Smith - Bass And Keyboards
Linda Imperial - Vocals

jefferson2006-02-23d01t01.flac:dc5b3b0b6f9379a68f0599a85a1ee92b
jefferson2006-02-23d01t02.flac:98aaa90db9716fc1a33b7aaa6c343db5
jefferson2006-02-23d01t03.flac:f747d7e26ca588db8616714692587e73
jefferson2006-02-23d01t04.flac:106853672be612bcbca61667d7978659
jefferson2006-02-23d01t05.flac:96908edb4bf401ce876ee1e1d6b2f972
jefferson2006-02-23d01t06.flac:5b605a81f05a102068b9503d1b794194
jefferson2006-02-23d01t07.flac:1e50028eaf9e5efca89e60751b2c1b44
jefferson2006-02-23d01t08.flac:d91ace05555c16e90364062908ed28a5
jefferson2006-02-23d01t09.flac:4033643c345ce3de33774e4ee993418c
jefferson2006-02-23d01t10.flac:721d138985bb97f15cb2c4583f4bf437
jefferson2006-02-23d01t11.flac:ffaa5c289aaa802f92df7bafbc8ae9d3
jefferson2006-02-23d02t01.flac:65d454a38c6a514bf0bfc09efa466fb9
jefferson2006-02-23d02t02.flac:4df2026ce8eb2426ece0d21ada46126f
jefferson2006-02-23d02t03.flac:403c99442db10b664ed7758af1ad66ca
jefferson2006-02-23d02t04.flac:f7098144453a51d2fa20743485b1aec8
jefferson2006-02-23d02t05.flac:a78f9e5ea7fcb1cb56a0e5d20fee9a28
jefferson2006-02-23d02t06.flac:69123d58630203f7c551e9b92c3c1606
jefferson2006-02-23d02t07.flac:2d3f4523cd30dc4205528c04d4a0a3f9
jefferson2006-02-23d02t08.flac:f815987673450ecc1d692ef8930b7baa
jefferson2006-02-23d02t09.flac:f6112c03057c3ddf009775d92697dcf1
jefferson2006-02-23d02t10.flac:ac074e7936d31d9e7649fac728193603
jefferson2006-02-23d02t11.flac:6fd70abf555dcd4615df650614618205
jefferson2006-02-23d02t12.flac:a93bebd7b3e6c71154ccdb1519344c17
jefferson2006-02-23d02t13.flac:d704c2fc2032de628094be3786332605
jefferson2006-02-23d02t14.flac:6644811cf951220fe766b9e26b889d2d
jefferson2006-02-23d02t15.flac:7154ed24c9a2eed94c3dba2906d00b14
jefferson2006-02-23d02t16.flac:8a2cf7ff1485b0882a6468d36e2f8319
jefferson2006-02-23d02t17.flac:151c4fe580434af8d55918d724ffbf04

  length     expanded size    cdr  WAVE problems  fmt   ratio  filename
     3:25.44       36265532 B   ---   --   ---xx   flac  0.4308  jefferson2006-02-23d01t01.flac
     3:09.09       33360812 B   ---   --   ---xx   flac  0.4052  jefferson2006-02-23d01t02.flac
     8:12.25       86847644 B   ---   --   ---xx   flac  0.4262  jefferson2006-02-23d01t03.flac
     4:18.03       45518300 B   ---   --   ---xx   flac  0.4495  jefferson2006-02-23d01t04.flac
     4:26.25       46981244 B   ---   --   ---xx   flac  0.4642  jefferson2006-02-23d01t05.flac
     5:10.20       54731084 B   ---   --   ---xx   flac  0.4616  jefferson2006-02-23d01t06.flac
     4:12.59       44591612 B   ---   --   ---xx   flac  0.4699  jefferson2006-02-23d01t07.flac
     8:48.49       93254492 B   ---   --   ---xx   flac  0.4305  jefferson2006-02-23d01t08.flac
     7:50.15       82943324 B   ---   --   ---xx   flac  0.4372  jefferson2006-02-23d01t09.flac
     3:48.64       40369772 B   ---   --   ---xx   flac  0.3957  jefferson2006-02-23d01t10.flac
     5:11.07       54876908 B   ---   --   ---xx   flac  0.4511  jefferson2006-02-23d01t11.flac
     4:12.69       44615132 B   ---   --   ---xx   flac  0.4764  jefferson2006-02-23d02t01.flac
     5:12.74       55210892 B   ---   --   ---xx   flac  0.4793  jefferson2006-02-23d02t02.flac
     1:32.13       16259420 B   ---   --   ---xx   flac  0.4295  jefferson2006-02-23d02t03.flac
     5:41.51       60272396 B   ---   --   ---xx   flac  0.4687  jefferson2006-02-23d02t04.flac
     2:58.64       31549772 B   ---   --   ---xx   flac  0.4016  jefferson2006-02-23d02t05.flac
     2:14.13       23668220 B   ---   --   ---xx   flac  0.4195  jefferson2006-02-23d02t06.flac
     7:44.64       82000172 B   ---   --   ---xx   flac  0.4567  jefferson2006-02-23d02t07.flac
     3:01.14       31961372 B   ---   --   ---xx   flac  0.4628  jefferson2006-02-23d02t08.flac
     5:26.35       57588764 B   ---   --   ---xx   flac  0.4419  jefferson2006-02-23d02t09.flac
     4:21.00       46040444 B   ---   --   ---xx   flac  0.4473  jefferson2006-02-23d02t10.flac
     2:48.60       29776364 B   ---   --   ---xx   flac  0.4690  jefferson2006-02-23d02t11.flac
     0:38.11        6729116 B   ---   --   ---xx   flac  0.3834  jefferson2006-02-23d02t12.flac
     0:23.54        4184252 B   ---   --   ---xx   flac  0.3270  jefferson2006-02-23d02t13.flac
     0:35.45        6279884 B   ---   --   ---xx   flac  0.3920  jefferson2006-02-23d02t14.flac
     5:03.43       53550380 B   ---   --   ---xx   flac  0.4972  jefferson2006-02-23d02t15.flac
     3:26.64       36488972 B   ---   --   ---xx   flac  0.4019  jefferson2006-02-23d02t16.flac
     5:33.11       58767116 B   ---   --   ---xx   flac  0.4220  jefferson2006-02-23d02t17.flac
   119:29.30     1264683392 B                            0.4444  (28 files)






More information about the bittorrent mailing list