[bittorrent] gd1992-02-24.149849.sbd.cm.miller.flac24

Automated Mailer noreply-bt.e at etree.org
Sun May 31 13:48:09 UTC 2020


Band:           Grateful Dead
Torrent Name:   gd1992-02-24.149849.sbd.cm.miller.flac24
Uploaded by:    norm
DB Link:        
Details:        http://bt.etree.org/details.php?id=609805

Contact the seeder at http://db.etree.org/norm

If the link to this show does not work, it was probably removed for
being non-trade-friendly.

Description / text file:
-------------------------
Grateful Dead - February 24, 1992
Oakland Coliseum Arena - Oakland, CA

Recording Info:
SBD > Cassette Master (TDK SA-X100)

Transfer Info:
Cassette Master (Nakamichi CR-7A) > Tascam DA-3000 (DSF 1-bit/5.6MHz) >
dBpoweramp > Adobe Audition CC 2015 > Samplitude Pro X4 Suite > FLAC/24
(1 DVD FLAC)

All Transfers and Mastering By Charlie Miller
charliemiller87 at earthlink.net
May 9, 2020

Notes:
-- Recorded by Don Pearson and Dan Healy
-- Tape flip and some tuning patched from DAT
-- There is some distortion in first two songs
-- There was a Mardis Gras parade going on during Iko Iko

Set 1:
01 - Tuning
02 - Touch Of Grey
03 - Feel Like A Stranger
04 - Friend Of The Devil
05 - When I Paint My Masterpiece
06 - Althea
07 - Cassidy

Set 2:
08 - Tuning
09 - Iko Iko >
10 - Corrina >
11 - The Other One >
12 - Way To Go Home >
13 - The Other One Jam >
14 - The Same Thing ->
15 - Drums >
16 - Space >
17 - Wave To The Wind >
18 - The Other One >
19 - So Many Roads >
20 - Turn On Your Lovelight

Encore:
21 - Encore Break
22 - The Mighty Quinn (Quinn The Eskimo)


SHNTOOL OUTPUT:
    length     expanded size    cdr  WAVE problems  fmt   ratio  filename
     0:27.029      15568856 B   cxx   --   ---xx   flac  0.6458  01 Tuning.flac
     7:00.828     242397110 B   cxx   --   ---xx   flac  0.6943  02 Touch Of Grey.flac
    11:27.283     395874812 B   cxx   --   ---xx   flac  0.6933  03 Feel Like A Stranger.flac
     9:03.930     313303952 B   cxx   --   ---xx   flac  0.6892  04 Friend Of The Devil.flac
     6:47.335     234624794 B   cxx   --   ---xx   flac  0.6812  05 When I Paint My Masterpiece.flac
     7:58.302     275502242 B   cxx   --   ---xx   flac  0.6906  06 Althea.flac
     6:17.369     217364510 B   cxx   --   ---xx   flac  0.6920  07 Cassidy.flac
     1:10.393      40546346 B   cxx   --   ---xx   flac  0.3964  08 Tuning.flac
     9:16.188     320364224 B   cxx   --   ---xx   flac  0.6888  09 Iko Iko.flac
     9:34.135     330702086 B   cxx   --   ---xx   flac  0.6932  10 Corrina.flac
    10:15.677     354629810 B   cxx   --   ---xx   flac  0.6820  11 The Other One.flac
     6:43.520     232427528 B   cxx   --   ---xx   flac  0.6928  12 Way To Go Home.flac
     1:03.752      36721076 B   cxx   --   ---xx   flac  0.6592  13 The Other One Jam.flac
     8:58.584     310224350 B   cxx   --   ---xx   flac  0.6789  14 The Same Thing.flac
    15:35.700     538963256 B   cxx   --   ---xx   flac  0.6603  15 Drums.flac
    14:38.881     506235416 B   cxx   --   ---xx   flac  0.6464  16 Space.flac
     8:08.301     281261678 B   cxx   --   ---xx   flac  0.6862  17 Wave To The Wind.flac
     4:06.055     141727562 B   cxx   --   ---xx   flac  0.6728  18 The Other One.flac
     7:29.453     258884942 B   cxx   --   ---xx   flac  0.6726  19 So Many Roads.flac
     6:05.848     210728438 B   cxx   --   ---xx   flac  0.6748  20 Turn On Your Lovelight.flac
     3:07.992     108283232 B   cxx   --   ---xx   flac  0.5139  21 Encore Break.flac
     4:53.021     168780206 B   cxx   --   ---xx   flac  0.6852  22 The Mighty Quinn (Quinn The Eskimo).flac
   160:09.575    5535116426 B                            0.6742  (22 files)



More information about the bittorrent mailing list