[bittorrent] gd1992-02-23.150012.sbd.cm.miller.flac16

Automated Mailer noreply-bt.e at etree.org
Sun May 31 11:19:30 UTC 2020


Band:           Grateful Dead
Torrent Name:   gd1992-02-23.150012.sbd.cm.miller.flac16
Uploaded by:    norm
DB Link:        
Details:        http://bt.etree.org/details.php?id=609804

Contact the seeder at http://db.etree.org/norm

If the link to this show does not work, it was probably removed for
being non-trade-friendly.

Description / text file:
-------------------------
Grateful Dead - February 23, 1992
Oakland Coliseum Arena - Oakland, CA

Recording Info:
SBD > Cassette Master (TDK SA-X100)

Transfer Info:
Cassette Master (Nakamichi CR-7A) > Tascam DA-3000 (DSF 1-bit/5.6MHz) >
dBpoweramp > Adobe Audition CC 2015 > Samplitude Pro X4 Suite > FLAC/24
(1 DVD FLAC)

Patch Info:
Schoeps CMC3/MK4 > DAT > CD (shnid=9982) supplies:
Drums (12:49 - 14:40)

All Transfers and Mastering By Charlie Miller
charliemiller87 at earthlink.net
May 6, 2020

Notes:
-- Recorded by Don Pearson and Dan Healy
-- Drums with Baba Olatunji
-- This was recorded too loud and is oversaturated but has it's moments
-- This file set is 16 bit @ 44.1

Set 1:
01 - Tuning
02 - Hell In A Bucket
03 - Peggy-O
04 - Walkin' Blues
05 - Ramble On Rose
06 - Way To Go Home
07 - Black Throated Wind
08 - Corrina

Set 2:
09 - Tuning
10 - China Cat Sunflower >
11 - I Know You Rider
12 - Playing In The Band >
13 - Terrapin Station >
14 - Drums >
15 - Space >
16 - I Need A Miracle >
17 - Stella Blue >
18 - Throwing Stones >
19 - Not Fade Away

Encore:
20 - Tuning
21 - Box Of Rain


SHNTOOL OUTPUT:
    length     expanded size    cdr  WAVE problems  fmt   ratio  filename
     0:53.69        9511532 B   ---   --   ---xx   flac  0.4963  01 Tuning.flac
     7:41.50       81438044 B   ---   --   ---xx   flac  0.6226  02 Hell In A Bucket.flac
     7:06.52       75268748 B   ---   --   ---xx   flac  0.6091  03 Peggy-O.flac
     7:00.42       74186828 B   ---   --   ---xx   flac  0.6094  04 Walkin' Blues.flac
    10:51.05      114848204 B   ---   --   ---xx   flac  0.5900  05 Ramble On Rose.flac
     6:27.20       68313884 B   ---   --   ---xx   flac  0.6448  06 Way To Go Home.flac
     6:13.60       65938364 B   ---   --   ---xx   flac  0.6156  07 Black Throated Wind.flac
     9:32.11      100926716 B   ---   --   ---xx   flac  0.6338  08 Corrina.flac
     0:30.72        5461388 B   ---   --   ---xx   flac  0.4906  09 Tuning.flac
     6:22.33       67462460 B   ---   --   ---xx   flac  0.6379  10 China Cat Sunflower.flac
     6:13.68       65957180 B   ---   --   ---xx   flac  0.6367  11 I Know Your Rider.flac
     8:52.37       93931868 B   ---   --   ---xx   flac  0.6315  12 Playing In The Band.flac
    17:30.27      185283548 B   ---   --   ---xx   flac  0.6155  13 Terrapin Station.flac
    16:07.06      170592956 B   ---   --   ---xx   flac  0.5283  14 Drums.flac
    12:01.69      127346732 B   ---   --   ---xx   flac  0.5289  15 Space.flac
     4:42.08       49763660 B   ---   --   ---xx   flac  0.6486  16 I Need A Miracle.flac
     7:28.67       79184828 B   ---   --   ---xx   flac  0.5702  17 Stella Blue.flac
     9:34.44      101357132 B   ---   --   ---xx   flac  0.6448  18 Throwing Stones.flac
     8:27.35       89517164 B   ---   --   ---xx   flac  0.6089  19 Not Fade Away.flac
     0:52.23        9226940 B   ---   --   ---xx   flac  0.4691  20 Tuning.flac
     5:01.42       53195228 B   ---   --   ---xx   flac  0.6198  21 Box Of Rain.flac
   159:33.15     1688713404 B                            0.6016  (21 files)



More information about the bittorrent mailing list