[bittorrent] gd1992-02-23.149829.sbd.cm.miller.flac24

Automated Mailer noreply-bt.e at etree.org
Sat May 30 23:00:43 UTC 2020


Band:           Grateful Dead
Torrent Name:   gd1992-02-23.149829.sbd.cm.miller.flac24
Uploaded by:    norm
DB Link:        
Details:        http://bt.etree.org/details.php?id=609801

Contact the seeder at http://db.etree.org/norm

If the link to this show does not work, it was probably removed for
being non-trade-friendly.

Description / text file:
-------------------------
Grateful Dead - February 23, 1992
Oakland Coliseum Arena - Oakland, CA

Recording Info:
SBD > Cassette Master (TDK SA-X100)

Transfer Info:
Cassette Master (Nakamichi CR-7A) > Tascam DA-3000 (DSF 1-bit/5.6MHz) >
dBpoweramp > Adobe Audition CC 2015 > Samplitude Pro X4 Suite > FLAC/24
(1 DVD FLAC)

Patch Info:
Schoeps CMC3/MK4 > DAT > CD (shnid=9982) supplies:
Drums (12:49 - 14:40)

All Transfers and Mastering By Charlie Miller
charliemiller87 at earthlink.net
May 6, 2020

Notes:
-- Recorded by Don Pearson and Dan Healy
-- Drums with Baba Olatunji
-- This was recorded too loud and is oversaturated but has it's moments

Set 1:
01 - Tuning
02 - Hell In A Bucket
03 - Peggy-O
04 - Walkin' Blues
05 - Ramble On Rose
06 - Way To Go Home
07 - Black Throated Wind
08 - Corrina

Set 2:
09 - Tuning
10 - China Cat Sunflower >
11 - I Know You Rider
12 - Playing In The Band >
13 - Terrapin Station >
14 - Drums >
15 - Space >
16 - I Need A Miracle >
17 - Stella Blue >
18 - Throwing Stones >
19 - Not Fade Away

Encore:
20 - Tuning
21 - Box Of Rain


SHNTOOL OUTPUT:
    length     expanded size    cdr  WAVE problems  fmt   ratio  filename
     0:53.926      31061432 B   cxx   --   ---xx   flac  0.6509  01 Tuning.flac
     7:41.664     265918562 B   cxx   --   ---xx   flac  0.6919  02 Hell In A Bucket.flac
     7:06.697     245777804 B   cxx   --   ---xx   flac  0.6883  03 Peggy-O.flac
     7:00.557     242240666 B   cxx   --   ---xx   flac  0.6855  04 Walkin' Blues.flac
    10:51.071     375016856 B   cxx   --   ---xx   flac  0.6811  05 Ramble On Rose.flac
     6:27.266     223065062 B   cxx   --   ---xx   flac  0.6992  06 Way To Go Home.flac
     6:13.796     215306600 B   cxx   --   ---xx   flac  0.6888  07 Black Throated Wind.flac
     9:32.151     329559068 B   cxx   --   ---xx   flac  0.6931  08 Corrina.flac
     0:30.960      17833136 B   cxx   --   ---xx   flac  0.6457  09 Tuning.flac
     6:22.436     220283024 B   cxx   --   ---xx   flac  0.6948  10 China Cat Sunflower.flac
     6:13.909     215371844 B   cxx   --   ---xx   flac  0.6944  11 I Know Your Rider.flac
     8:52.490     306714344 B   cxx   --   ---xx   flac  0.6946  12 Playing In The Band.flac
    17:30.364     605009654 B   cxx   --   ---xx   flac  0.6844  13 Terrapin Station.flac
    16:07.081     557038940 B   cxx   --   ---xx   flac  0.6479  14 Drums.flac
    12:01.911     415821056 B   cxx   --   ---xx   flac  0.6620  15 Space.flac
     4:42.119     162500366 B   cxx   --   ---xx   flac  0.6972  16 I Need A Miracle.flac
     7:28.884     258557258 B   cxx   --   ---xx   flac  0.6709  17 Stella Blue.flac
     9:34.593     330965570 B   cxx   --   ---xx   flac  0.6942  18 Throwing Stones.flac
     8:27.471     292303076 B   cxx   --   ---xx   flac  0.6829  19 Not Fade Away.flac
     0:52.295      30121742 B   cxx   --   ---xx   flac  0.6418  20 Tuning.flac
     5:01.546     173690726 B   cxx   --   ---xx   flac  0.6907  21 Box Of Rain.flac
   159:33.187    5514156786 B                            0.6819  (21 files)



More information about the bittorrent mailing list