[bittorrent] gd1992-02-22.150007.sbd.cm.miller.flac16

Automated Mailer noreply-bt.e at etree.org
Sat May 30 22:10:39 UTC 2020


Band:           Grateful Dead
Torrent Name:   gd1992-02-22.150007.sbd.cm.miller.flac16
Uploaded by:    norm
DB Link:        
Details:        http://bt.etree.org/details.php?id=609799

Contact the seeder at http://db.etree.org/norm

If the link to this show does not work, it was probably removed for
being non-trade-friendly.

Description / text file:
-------------------------
Grateful Dead - February 22, 1992
Oakland Coliseum Arena - Oakland, CA

Recording Info:
SBD > Cassette Master (TDK SA-X100)

Transfer Info:
Cassette Master (Nakamichi CR-7A) > Tascam DA-3000 (DSF 1-bit/5.6MHz) >
dBpoweramp > Adobe Audition CC 2015 > Samplitude Pro X4 Suite > FLAC/24
(1 DVD FLAC)

Patch Info:
(FOB) Schoeps CMC3/MK4 > DAT (shnid=77722) supplies:
Space (1:12 - 2:46)

All Transfers and Mastering By Charlie Miller
charliemiller87 at earthlink.net
May 8, 2020

Notes:
-- Recorded by Don Pearson and Dan Healy
-- The signal from the board was too loud and is oversaturated but still has it's moments
-- This file set is 16 bit @ 44.1

Set 1:
01 - Bertha >
02 - Promised Land
03 - Stagger Lee
04 - Wang Dang Doodle
05 - So Many Roads
06 - Queen Jane Approximately
07 - Loose Lucy
08 - Wave To The Wind >
09 - Don't Ease Me In

Set 2:
10 - Tuning
11 - One More Saturday Night
12 - Mississippi Half-Step Uptown Toodeloo >
13 - Estimated Prophet >
14 - He's Gone >
15 - Drums >
16 - Space >
17 - The Wheel >
18 - All Along The Watchtower >
19 - Black Peter >
20 - Sugar Magnolia

Encore:
21 - Encore Break
22 - U.S. Blues


SHNTOOL OUTPUT:
    length     expanded size    cdr  WAVE problems  fmt   ratio  filename
     7:01.49       74379692 B   ---   --   ---xx   flac  0.6198  01 Bertha.flac
     5:49.69       61725932 B   ---   --   ---xx   flac  0.6056  02 Promised Land.flac
     6:32.33       69226460 B   ---   --   ---xx   flac  0.5985  03 Stagger Lee.flac
    10:33.39      111752972 B   ---   --   ---xx   flac  0.5934  04 Wang Dang Doodle.flac
     7:11.49       76143692 B   ---   --   ---xx   flac  0.5743  05 So Many Roads.flac
     5:56.36       62883116 B   ---   --   ---xx   flac  0.6071  06 Queen Jane Approximately.flac
     8:58.68       95063180 B   ---   --   ---xx   flac  0.5995  07 Loose Lucy.flac
     9:09.28       96909500 B   ---   --   ---xx   flac  0.6490  08 Wave To The Wind.flac
     3:35.15       37961324 B   ---   --   ---xx   flac  0.6439  09 Don't Ease Me In.flac
     0:51.43        9097580 B   ---   --   ---xx   flac  0.4797  10 Tuning.flac
     4:55.26       52099196 B   ---   --   ---xx   flac  0.6568  11 One More Saturday Night.flac
     7:32.05       79744604 B   ---   --   ---xx   flac  0.6254  12 Mississippi Half-Step Uptown Toodeloo.flac
    10:33.19      111705932 B   ---   --   ---xx   flac  0.6263  13 Estimated Prophet.flac
     9:37.26      101843996 B   ---   --   ---xx   flac  0.5918  14 He's Gone.flac
    17:34.38      186015020 B   ---   --   ---xx   flac  0.5094  15 Drums.flac
    10:17.72      109008188 B   ---   --   ---xx   flac  0.5250  16 Space.flac
     4:38.32       49114508 B   ---   --   ---xx   flac  0.6311  17 The Wheel.flac
     6:07.12       64767068 B   ---   --   ---xx   flac  0.6426  18 All Along The Watchtower.flac
    11:08.21      117884636 B   ---   --   ---xx   flac  0.6157  19 Black Peter.flac
     8:03.38       85290620 B   ---   --   ---xx   flac  0.6582  20 Sugar Magnolia.flac
     1:42.31       18065756 B   ---   --   ---xx   flac  0.4594  21 Encore Break.flac
     5:19.51       56391596 B   ---   --   ---xx   flac  0.6639  22 US Blues.flac
   163:10.50     1727074568 B                            0.5994  (22 files)



More information about the bittorrent mailing list