[bittorrent] gd1992-02-22.149848.sbd.cm.miller.flac24

Automated Mailer noreply-bt.e at etree.org
Sat May 30 20:33:21 UTC 2020


Band:           Grateful Dead
Torrent Name:   gd1992-02-22.149848.sbd.cm.miller.flac24
Uploaded by:    norm
DB Link:        
Details:        http://bt.etree.org/details.php?id=609798

Contact the seeder at http://db.etree.org/norm

If the link to this show does not work, it was probably removed for
being non-trade-friendly.

Description / text file:
-------------------------
Grateful Dead - February 22, 1992
Oakland Coliseum Arena - Oakland, CA

Recording Info:
SBD > Cassette Master (TDK SA-X100)

Transfer Info:
Cassette Master (Nakamichi CR-7A) > Tascam DA-3000 (DSF 1-bit/5.6MHz) >
dBpoweramp > Adobe Audition CC 2015 > Samplitude Pro X4 Suite > FLAC/24
(1 DVD FLAC)

Patch Info:
(FOB) Schoeps CMC3/MK4 > DAT (shnid=77722) supplies:
Space (1:12 - 2:46)

All Transfers and Mastering By Charlie Miller
charliemiller87 at earthlink.net
May 8, 2020

Notes:
-- Recorded by Don Pearson and Dan Healy
-- The signal from the board was too loud and is oversaturated but still has it's moments

Set 1:
01 - Bertha >
02 - Promised Land
03 - Stagger Lee
04 - Wang Dang Doodle
05 - So Many Roads
06 - Queen Jane Approximately
07 - Loose Lucy
08 - Wave To The Wind >
09 - Don't Ease Me In

Set 2:
10 - Tuning
11 - One More Saturday Night
12 - Mississippi Half-Step Uptown Toodeloo >
13 - Estimated Prophet >
14 - He's Gone >
15 - Drums >
16 - Space >
17 - The Wheel >
18 - All Along The Watchtower >
19 - Black Peter >
20 - Sugar Magnolia

Encore:
21 - Encore Break
22 - U.S. Blues


SHNTOOL OUTPUT:
    length     expanded size    cdr  WAVE problems  fmt   ratio  filename
     7:01.659     242875538 B   cxx   --   ---xx   flac  0.6830  01 Bertha.flac
     5:49.917     201552128 B   cxx   --   ---xx   flac  0.6841  02 Promised Land.flac
     6:32.443     226047314 B   cxx   --   ---xx   flac  0.6847  03 Stagger Lee.flac
    10:33.523     364909190 B   cxx   --   ---xx   flac  0.6823  04 Wang Dang Doodle.flac
     7:11.657     248634464 B   cxx   --   ---xx   flac  0.6770  05 So Many Roads.flac
     5:56.481     205333166 B   cxx   --   ---xx   flac  0.6870  06 Queen Jane Approximately.flac
     8:58.905     310409126 B   cxx   --   ---xx   flac  0.6804  07 Loose Lucy.flac
     9:09.371     316437584 B   cxx   --   ---xx   flac  0.6953  08 Wave To The Wind.flac
     3:35.202     123956504 B   cxx   --   ---xx   flac  0.6937  09 Don't Ease Me In.flac
     0:51.574      29706404 B   cxx   --   ---xx   flac  0.6438  10 Tuning.flac
     4:55.341     170116322 B   cxx   --   ---xx   flac  0.7005  11 One More Saturday Night.flac
     7:32.070     260392412 B   cxx   --   ---xx   flac  0.6931  12 Mississippi Half-Step Uptown Toodeloo.flac
    10:33.258     364756604 B   cxx   --   ---xx   flac  0.6933  13 Estimated Prophet.flac
     9:37.334     332544380 B   cxx   --   ---xx   flac  0.6840  14 He's Gone.flac
    17:34.515     607400486 B   cxx   --   ---xx   flac  0.6630  15 Drums.flac
    10:17.955     355941878 B   cxx   --   ---xx   flac  0.6506  16 Space.flac
     4:38.431     160376342 B   cxx   --   ---xx   flac  0.6926  17 The Wheel.flac
     6:07.157     211482332 B   cxx   --   ---xx   flac  0.6958  18 All Along The Watchtower.flac
    11:08.283     384931274 B   cxx   --   ---xx   flac  0.6879  19 Black Peter.flac
     8:03.501     278496842 B   cxx   --   ---xx   flac  0.6983  20 Sugar Magnolia.flac
     1:42.419      58993652 B   cxx   --   ---xx   flac  0.6368  21 Encore Break.flac
     5:19.664     184126706 B   cxx   --   ---xx   flac  0.7033  22 US Blues.flac
   163:10.659    5639420648 B                            0.6831  (22 files)



More information about the bittorrent mailing list