[bittorrent] gd1971-12-15.149966.sbd.mr.miller.flac16

Automated Mailer noreply-bt.e at etree.org
Sat May 30 20:11:46 UTC 2020


Band:           Grateful Dead
Torrent Name:   gd1971-12-15.149966.sbd.mr.miller.flac16
Uploaded by:    norm
DB Link:        
Details:        http://bt.etree.org/details.php?id=609796

Contact the seeder at http://db.etree.org/norm

If the link to this show does not work, it was probably removed for
being non-trade-friendly.

Description / text file:
-------------------------
Grateful Dead - December 15, 1971
Hill Auditorium - Ann Arbor, MI

Recording Info:
SBD > Master Reel > Pro Tools > FLAC/24

Mastering Info:
FLAC/24 > Adobe Audition CC2015 > Samplitude Pro X4 Suite > FLAC/24
(1 DVD FLAC)

Recorded by Ramrod
Transferred by Rob Eaton
Mastered by Charlie Miller
charliemiller87 at earthlink.net
April 3, 2020

Notes:
-- There were a lot of tape pauses which were patched with Rob Eaton's FM Dats
-- Lovelight contains I'm A King Bee and I'm A Man verses
-- All sources used for this project were supplied by Rob Eaton
-- Thanks to Joe B. Jones for his help with the pitch correction
-- This file set is 16 bit @ 44.1

Set 1:
01 - Introduction
02 - Bertha
03 - Me And Bobby McGee
04 - Mr. Charlie
05 - China Cat Sunflower >
06 - I Know You Rider >
07 - Beat It On Down The Line
08 - It Hurts Me Too
09 - Cumberland Blues
10 - Jack Straw
11 - You Win Again
12 - Run Rudolph Run
13 - Playing In The Band
14 - Brown Eyed Women
15 - Mexicali Blues
16 - Big Railroad Blues
17 - Brokedown Palace
18 - El Paso
19 - Casey Jones

Set 2:
20 - Dark Star >
21 - Deal
22 - Stars And Stripes Forever
23 - Sugar Magnolia
24 - Turn On Your Lovelight
25 - One More Saturday Night

Encore:
26 - Uncle John's Band


SHNTOOL OUTPUT:
    length     expanded size    cdr  WAVE problems  fmt   ratio  filename
     3:17.39       34842572 B   ---   --   ---xx   flac  0.4615  01 Introduction.flac
     6:04.11       64235516 B   ---   --   ---xx   flac  0.5194  02 Bertha.flac
     6:11.05       65456204 B   ---   --   ---xx   flac  0.5166  03 Me And Bobby McGee.flac
     4:12.38       44542220 B   ---   --   ---xx   flac  0.5353  04 Mr Charlie.flac
     5:21.64       56774972 B   ---   --   ---xx   flac  0.5548  05 China Cat Sunflower.flac
     7:18.34       77343212 B   ---   --   ---xx   flac  0.5244  06 I Know You Rider.flac
     4:01.54       42639452 B   ---   --   ---xx   flac  0.5289  07 Beat It On Down The Line.flac
     8:46.39       92878172 B   ---   --   ---xx   flac  0.4962  08 It Hurts Me Too.flac
     5:03.38       53538620 B   ---   --   ---xx   flac  0.5617  09 Cumberland Blues.flac
     5:48.62       61533068 B   ---   --   ---xx   flac  0.5125  10 Jack Straw.flac
     4:43.32       49996508 B   ---   --   ---xx   flac  0.5155  11 You Win Again.flac
     5:48.04       61396652 B   ---   --   ---xx   flac  0.5156  12 Run Rudolph Run.flac
     6:44.21       71315036 B   ---   --   ---xx   flac  0.5266  13 Playing In The Band.flac
     5:54.43       62546780 B   ---   --   ---xx   flac  0.4978  14 Brown Eyed Women.flac
     3:45.59       39828812 B   ---   --   ---xx   flac  0.5267  15 Mexicali Blues.flac
     4:55.33       52115660 B   ---   --   ---xx   flac  0.5361  16 Big Railroad Blues.flac
     8:17.38       87760220 B   ---   --   ---xx   flac  0.4678  17 Brokedown Palace.flac
     4:26.17       46962428 B   ---   --   ---xx   flac  0.5262  18 El Paso.flac
     5:28.63       58007420 B   ---   --   ---xx   flac  0.5227  19 Casey Jones.flac
    20:16.27      214565948 B   ---   --   ---xx   flac  0.5299  20 Dark Star.flac
     7:31.14       79589372 B   ---   --   ---xx   flac  0.4965  21 Deal.flac
     1:08.52       12117548 B   ---   --   ---xx   flac  0.4409  22 Stars And Stripes Forever.flac
     7:04.41       74890076 B   ---   --   ---xx   flac  0.5432  23 Sugar Magnolia.flac
    20:12.15      213832124 B   ---   --   ---xx   flac  0.5087  24 Turn On Your Lovelight.flac
     4:56.36       52299116 B   ---   --   ---xx   flac  0.5743  25 One More Saturday Night.flac
     6:32.04       69158252 B   ---   --   ---xx   flac  0.5376  26 Uncle John's Band.flac
   173:51.58     1840165960 B                            0.5194  (26 files)



More information about the bittorrent mailing list