[bittorrent] Phil Lesh And Friends Beacon Theatre New York City, New York 2/12/2006 (FOB - New To Circulation)

Automated Mailer noreply-bt.e at etree.org
Fri May 29 18:12:42 UTC 2020


Band:           Phil Lesh & Friends
Torrent Name:   Phil Lesh And Friends Beacon Theatre New York City, New York 2/12/2006 (FOB - New To Circulation)
Uploaded by:    zmanatl
DB Link:        
Details:        http://bt.etree.org/details.php?id=609789

Contact the seeder at http://db.etree.org/zmanatl

If the link to this show does not work, it was probably removed for
being non-trade-friendly.

Description / text file:
-------------------------
Phil Lesh And Friends
Beacon Theatre
New York City, New York
2/12/2006

Source: Neumann AK43>LC3KA>KM100>SBM1 Modified>Sound Devices 722 (24/96)
FOB/DFC/KFC/ZFC Orchestra Center, Row H, Between Seats 106 & 107, 6' High
DSP: Sound Devices 722>Sound Forge 10.0>CD Wave>flac(16)
ID3 Tagged In Foobar 2000
Recorded By: Jim Madry And Z-Man 
Seeded By: Z-Man
A Team Dirty South Recording

Disc I 1st Set

01 Greeting From Phil/Tuning
02 Help On The Way >
03 Slipknot! >
04 Franklin's Tower
05 Up On Cripple Creek >
06 They Love Each Other >
07 Cold Rain And Snow Jam >
08 Loose Lucy 
09 Buckets Of Rain 
10 All Along The Watchtower 

Disc II 2nd Set 

01 St. Stephen >
02 When Sin Replaces Love >
03 Cryptical Envelopment >
04 Jam >
05 Dark Star >
06 Other One >
07 Jam >

Disc III 2nd Set Con't 

01 Dark Star >
02 Jam >
03 Eyes Of The World >
04 Goin' Down The Road Feelin' Bad >
05 Gimme Shelter 
Encore: 
06 *Thanks/Donor Rap 
07 *Band Introductions 
08 Wolfman's Brother
09 #Midnight Hour

* Done By Rob Barraco As Phil Lost His Voice
# With Danny Clinch On Harmonica

Phil Lesh - Bass And Vocals
Larry Campbell - Guitar, Fiddle, Mandolin, And Vocals
Trey Anastasio - Guitar And Vocals
Rob Barraco - Keyboards And Vocals
Joan Osbourne - Vocals 
Jeff Sipe - Drums 

phil2006-02-12d01t01.flac:fc8946e0acb6dbb0e849c09828a20833
phil2006-02-12d01t02.flac:d1df8d02ce8738a380780f97153421a9
phil2006-02-12d01t03.flac:aaca8b02134d0b6da6edb588d1fab76e
phil2006-02-12d01t04.flac:166aaa856295e501651c953de5889e8c
phil2006-02-12d01t05.flac:cbffd22c7a58529de4359a1d27ed259f
phil2006-02-12d01t06.flac:cd6899cf9f18a83c9ee6f21a44e3f411
phil2006-02-12d01t07.flac:65edaafd61b26d94162f2bd63260e70b
phil2006-02-12d01t08.flac:751d4fc5c2b63a8733b934b231bf46b6
phil2006-02-12d01t09.flac:1a056703e7190eaaa76789f04b2402fc
phil2006-02-12d01t10.flac:42a90fb25ab1cbe550ae3a68e7a37941
phil2006-02-12d02t01.flac:c2ee24442c0a5401a49cee128c361a39
phil2006-02-12d02t02.flac:30ef94e37fab2cae2a7b3d2c217d6655
phil2006-02-12d02t03.flac:ed694a923cb5b92cea5d3fee4fcd8fb0
phil2006-02-12d02t04.flac:12fa33f3bf8b57a1aa456df80e5336c1
phil2006-02-12d02t05.flac:392979d2b57f4ecc12a80af0a67a12b4
phil2006-02-12d02t06.flac:c642e3af9a0728c9e7f65371b2aa2f5f
phil2006-02-12d02t07.flac:b06d7d387bbaf8f20531bf25b35b9a47
phil2006-02-12d03t01.flac:8d08068720b65260a5f1b7b0f3a50069
phil2006-02-12d03t02.flac:68f2dfe25b2c16fc87a7b9ebfa73ca79
phil2006-02-12d03t03.flac:f702a7c668b3307f181b912092ca3908
phil2006-02-12d03t04.flac:d677c615c1eb74df61c04983c1297cd8
phil2006-02-12d03t05.flac:2db4925f1bbc1873856fada9b0518bd2
phil2006-02-12d03t06.flac:5173d86eb512d43bbe6e4f777eab25d7
phil2006-02-12d03t07.flac:ea8a8b449a6c1033ee64c3447ecb429a
phil2006-02-12d03t08.flac:ade488cea7234af50eef105f5f868df2
phil2006-02-12d03t09.flac:1ed27d8346faa6ee70fb605b8bf19d4f

length     expanded size    cdr  WAVE problems  fmt   ratio  filename
     2:19.32       24594908 B   ---   --   ---xx   flac  0.3771  phil2006-02-12d01t01.flac
     4:51.25       51391244 B   ---   --   ---xx   flac  0.5194  phil2006-02-12d01t02.flac
     5:41.11       60178316 B   ---   --   ---xx   flac  0.5193  phil2006-02-12d01t03.flac
    12:29.08      132142460 B   ---   --   ---xx   flac  0.5087  phil2006-02-12d01t04.flac
     8:55.71       94541036 B   ---   --   ---xx   flac  0.5276  phil2006-02-12d01t05.flac
    10:53.38      115278620 B   ---   --   ---xx   flac  0.5118  phil2006-02-12d01t06.flac
     3:26.57       36472508 B   ---   --   ---xx   flac  0.4971  phil2006-02-12d01t07.flac
     5:49.38       61653020 B   ---   --   ---xx   flac  0.4927  phil2006-02-12d01t08.flac
     7:16.25       76969244 B   ---   --   ---xx   flac  0.4214  phil2006-02-12d01t09.flac
     9:16.71       98245436 B   ---   --   ---xx   flac  0.5474  phil2006-02-12d01t10.flac
    10:28.31      110852156 B   ---   --   ---xx   flac  0.5146  phil2006-02-12d02t01.flac
    12:53.20      136404284 B   ---   --   ---xx   flac  0.4696  phil2006-02-12d02t02.flac
     6:03.67       64190828 B   ---   --   ---xx   flac  0.4837  phil2006-02-12d02t03.flac
    16:31.02      174817148 B   ---   --   ---xx   flac  0.4727  phil2006-02-12d02t04.flac
    13:11.17      139572428 B   ---   --   ---xx   flac  0.4797  phil2006-02-12d02t05.flac
     9:38.30      102029804 B   ---   --   ---xx   flac  0.5262  phil2006-02-12d02t06.flac
     3:14.28       34287500 B   ---   --   ---xx   flac  0.3919  phil2006-02-12d02t07.flac
     4:54.55       51991004 B   ---   --   ---xx   flac  0.4644  phil2006-02-12d03t01.flac
     3:33.18       37615580 B   ---   --   ---xx   flac  0.5447  phil2006-02-12d03t02.flac
     9:19.21       98657036 B   ---   --   ---xx   flac  0.5098  phil2006-02-12d03t03.flac
     8:08.34       86163212 B   ---   --   ---xx   flac  0.5193  phil2006-02-12d03t04.flac
     8:11.65       86765324 B   ---   --   ---xx   flac  0.5594  phil2006-02-12d03t05.flac
     1:10.49       12463292 B   ---   --   ---xx   flac  0.3486  phil2006-02-12d03t06.flac
     1:46.16       18736076 B   ---   --   ---xx   flac  0.3923  phil2006-02-12d03t07.flac
     7:41.10       81343964 B   ---   --   ---xx   flac  0.4856  phil2006-02-12d03t08.flac
     9:47.51      103666796 B   ---   --   ---xx   flac  0.5195  phil2006-02-12d03t09.flac
   197:33.65     2091023224 B                            0.4974  (26 files)





More information about the bittorrent mailing list