[bittorrent] Phil Lesh And Friends Beacon Theatre New York City, New York 2/11/2006 (FOB - New To Circulation)

Automated Mailer noreply-bt.e at etree.org
Fri May 29 15:08:00 UTC 2020


Band:           Phil Lesh & Friends
Torrent Name:   Phil Lesh And Friends Beacon Theatre New York City, New York 2/11/2006 (FOB - New To Circulation)
Uploaded by:    zmanatl
DB Link:        
Details:        http://bt.etree.org/details.php?id=609788

Contact the seeder at http://db.etree.org/zmanatl

If the link to this show does not work, it was probably removed for
being non-trade-friendly.

Description / text file:
-------------------------
il Lesh And Friends
Beacon Theatre
New York City, New York
2/11/2006

Source: Neumann AK43>LC3KA>KM100>SBM1 Modified>Sound Devices 722 (24/96)
FOB/DFC/KFC/ZFC Orchestra Center, Row G, Between Seats 106 & 107, 6' High
DSP: Sound Devices 722>Sound Forge 10.0>CD Wave>flac(16)
ID3 Tagged In Foobar 2000
Recorded By: Jim Madry And Z-Man 
Seeded By: Z-Man
A Team Dirty South Recording

Disc I 1st Set

01 Jam >
02 China-Cat Sunflower >
03 I Know You Rider
04 Scarlet Begonias >
05 Jam >
06 The Wheel >
07 Let It Ride 
08 Cumberland Blues  
09 Uncle John's Band

Disc II 2nd Set 

01 *Shakedown Street >
02 *Jam >
03 *Viola Lee Blues >
04 *Hard To Handle >
05 *Viola Lee Blues >
06 *Bertha >
07 *Jam >
08 *Viola Lee Blues

Disc III 2nd Set Con't 

01 *Bartering Lines >
02 *Feedback >
03 *Caution (Do Not Stop On The Tracks) >
04 *Feedback >
05 *Fire On The Mountain >
06 *Scarlet Begonias Ending
07 *Not Fade Away
Encore:
08 Conscious Alliance Donations/Phil Donot Rap
09 Band Introductions 
10 *Strawberry Fields Forever
11 *Comes A Time >
12 *Golden Road (To Unlimited Devotion)
13 Outro By Phil On Upcoming Shows

* With Warren Haynes On Guitar And Vocals 

Phil Lesh - Bass And Vocals
Larry Campbell - Guitar, Fiddle, Mandolin, And Vocals
Barry Sless - Guitar And Pedal Steel Guitar
Rob Barraco - Keyboards And Vocals
Joan Osbourne - Vocals 
Jeff Sipe - Drums 

phil2006-02-11d01t01.flac:af38803d144077c2c702d1eb70603630
phil2006-02-11d01t02.flac:5eb776feea6b60985ca3a52653721e03
phil2006-02-11d01t03.flac:fd2142c5408b029bbfca64ff89c6415c
phil2006-02-11d01t04.flac:152deb0db84b26151fd59a82dd7754c2
phil2006-02-11d01t05.flac:7303ab84afea9208d4cb879e44ed215a
phil2006-02-11d01t06.flac:cee2ceaaf0e1f1bcb3ecd27d0cf4a806
phil2006-02-11d01t07.flac:08620af8aac03bb2921a5027ea4792fd
phil2006-02-11d01t08.flac:b6e56a422e8311dc31f1fb7958b770d1
phil2006-02-11d01t09.flac:bb6ae2bed7d166c286fcb8820556288a
phil2006-02-11d02t01.flac:e6b1b939bd3a75163e864741eca606db
phil2006-02-11d02t02.flac:6767dddd6892d5bf896b4352bc89e4dd
phil2006-02-11d02t03.flac:9408b6c9037122afde1fe328bb35e78b
phil2006-02-11d02t04.flac:eea62500ea6d52c4f161561994683e59
phil2006-02-11d02t05.flac:40c01a282ae786f8ebedbef9b2224e45
phil2006-02-11d02t06.flac:0249b73e73a850ec0a6c24e737341778
phil2006-02-11d02t07.flac:a6891b2eda2f9f32d6a5e2d6932b2b5b
phil2006-02-11d02t08.flac:24862a311151deb42ea49eb4e6c641e3
phil2006-02-11d03t01.flac:14e3d34c3081cd780bed9a5408db5e64
phil2006-02-11d03t02.flac:e64a5f6313996c9777b09031c7d7729c
phil2006-02-11d03t03.flac:7a6e44ee3d5f85cf7822e6d47199f984
phil2006-02-11d03t04.flac:db9f371c6910ab50e29ca67427ce2a30
phil2006-02-11d03t05.flac:700d34eabc49a41ea3f866662709ae83
phil2006-02-11d03t06.flac:85c016253f1395f3ab49632083cf648d
phil2006-02-11d03t07.flac:dea507a949d4a146b69adacfe7aeec65
phil2006-02-11d03t08.flac:80408bd80bc1c5520b77c547e82e4e5f
phil2006-02-11d03t09.flac:5cde245f3a3382a30f51d6a10fb12163
phil2006-02-11d03t10.flac:9fcd995af480325f9b176fa0a466384f
phil2006-02-11d03t11.flac:cc6d973ecfa99656126bf6c6285d8242
phil2006-02-11d03t12.flac:cc980c7e2a7cfb6d2a84e8311430e55d
phil2006-02-11d03t13.flac:4c5c25270b4ef6cd1cedb58363ce3f02

   length     expanded size    cdr  WAVE problems  fmt   ratio  filename
     4:51.13       51363020 B   ---   --   ---xx   flac  0.4293  phil2006-02-11d01t01.flac
     7:54.66       83768876 B   ---   --   ---xx   flac  0.5140  phil2006-02-11d01t02.flac
     7:37.02       80619548 B   ---   --   ---xx   flac  0.5126  phil2006-02-11d01t03.flac
     9:57.47      105421388 B   ---   --   ---xx   flac  0.4982  phil2006-02-11d01t04.flac
     7:33.12       79937468 B   ---   --   ---xx   flac  0.4696  phil2006-02-11d01t05.flac
    11:51.00      125420444 B   ---   --   ---xx   flac  0.5144  phil2006-02-11d01t06.flac
     6:39.46       70491836 B   ---   --   ---xx   flac  0.5106  phil2006-02-11d01t07.flac
    11:33.62      122391068 B   ---   --   ---xx   flac  0.5209  phil2006-02-11d01t08.flac
    10:59.64      116398172 B   ---   --   ---xx   flac  0.4977  phil2006-02-11d01t09.flac
    10:45.73      113949740 B   ---   --   ---xx   flac  0.5258  phil2006-02-11d02t01.flac
     4:38.33       49116860 B   ---   --   ---xx   flac  0.4990  phil2006-02-11d02t02.flac
     8:55.71       94541036 B   ---   --   ---xx   flac  0.4876  phil2006-02-11d02t03.flac
    10:55.09      115563212 B   ---   --   ---xx   flac  0.4997  phil2006-02-11d02t04.flac
     7:13.43       76482380 B   ---   --   ---xx   flac  0.4878  phil2006-02-11d02t05.flac
     6:50.05       72335804 B   ---   --   ---xx   flac  0.5416  phil2006-02-11d02t06.flac
     4:25.55       46875404 B   ---   --   ---xx   flac  0.5021  phil2006-02-11d02t07.flac
     2:20.63       24844220 B   ---   --   ---xx   flac  0.5189  phil2006-02-11d02t08.flac
    12:09.74      128769692 B   ---   --   ---xx   flac  0.4614  phil2006-02-11d03t01.flac
     2:34.22       27217388 B   ---   --   ---xx   flac  0.4635  phil2006-02-11d03t02.flac
     6:58.15       73770524 B   ---   --   ---xx   flac  0.5083  phil2006-02-11d03t03.flac
     6:59.44       74015132 B   ---   --   ---xx   flac  0.4193  phil2006-02-11d03t04.flac
    10:20.61      109511516 B   ---   --   ---xx   flac  0.5188  phil2006-02-11d03t05.flac
     1:23.13       14671820 B   ---   --   ---xx   flac  0.4205  phil2006-02-11d03t06.flac
    10:29.18      110997980 B   ---   --   ---xx   flac  0.4999  phil2006-02-11d03t07.flac
     3:15.55       34527404 B   ---   --   ---xx   flac  0.3437  phil2006-02-11d03t08.flac
     1:07.06       11832956 B   ---   --   ---xx   flac  0.4100  phil2006-02-11d03t09.flac
     8:32.06       90330956 B   ---   --   ---xx   flac  0.4550  phil2006-02-11d03t10.flac
     8:02.27       85088348 B   ---   --   ---xx   flac  0.4465  phil2006-02-11d03t11.flac
     4:53.00       51685244 B   ---   --   ---xx   flac  0.5857  phil2006-02-11d03t12.flac
     0:56.67       10036028 B   ---   --   ---xx   flac  0.4489  phil2006-02-11d03t13.flac
   212:46.22     2251975464 B                            0.4927  (30 files)





More information about the bittorrent mailing list