[bittorrent] Phil Lesh And Friends Beacon Theatre New York City, New York 2/10/2006 (FOB - New To Circulation)

Automated Mailer noreply-bt.e at etree.org
Thu May 28 19:07:18 UTC 2020


Band:           Phil Lesh & Friends
Torrent Name:   Phil Lesh And Friends Beacon Theatre New York City, New York 2/10/2006 (FOB - New To Circulation)
Uploaded by:    zmanatl
DB Link:        
Details:        http://bt.etree.org/details.php?id=609780

Contact the seeder at http://db.etree.org/zmanatl

If the link to this show does not work, it was probably removed for
being non-trade-friendly.

Description / text file:
-------------------------
Phil Lesh And Friends
Beacon Theatre
New York City, New York
2/10/2006

Source: Schoeps Neumann KM 143'S>SBM1 Modified>Sound Devices 722 (24/96)
FOB/DFC/KFC/ZFC Orchestra Center, Row H, Between Seats 106 & 107, 6' High
DSP: Sound Devices 722>Sound Forge 10.0>CD Wave>flac(16)
ID3 Tagged In Foobar 2000
Recorded By: Jim Madry And Z-Man 
Seeded By: Z-Man
A Team Dirty South Recording

Disc I 1st Set

01 New York, New York >
02 Jam >
03 Playin' In The Band >
04 Cold Roses
05 West LA Fadeaway
06 No More Do I >
07 Love The One You're With
08 Turn On Your Lovelight

Disc II 2nd Set 

01 Jam >
02 After Midnight
03 Magnolia Mountain > 
04 Bird Song >
05 Jam >
06 Unbroken Chain

Disc III 2nd Set Con't 

01 The Rerscue Blues >
02 Good Lovin' 
03 Help On The Way >
04 Slipknot! >
05 Franklin's Tower
Encore:
06 Conscious Alliance Food Drive/Donor Rap
07 Band Introductions
08 Casey Jones

Phil Lesh - Bass And Vocals
Larry Campbell - Guitar, Fiddle, Mandolin, And Vocals
Barry Sless - Guitar And Pedal Steel Guitar
Rob Barraco - Keyboards And Vocals
Joan Osbourne - Vocals 
Jeff Sipe - Drums 

phil2006-02-10d01t01.flac:cec420043bf309607a4b8e50da6f04c4
phil2006-02-10d01t02.flac:709a77b3c9e11c201e1a05ac03292dc8
phil2006-02-10d01t03.flac:3c5b53d9a10d627c4c293db62ea178c3
phil2006-02-10d01t04.flac:8755466efc15e6a5b5e030bb23f41f41
phil2006-02-10d01t05.flac:a339f7d5fa09c7c611dbda932f647603
phil2006-02-10d01t06.flac:9d9a93f676edd7b61e2d3e9c9682af1b
phil2006-02-10d01t07.flac:7c98896b5f4749e5c45559fc77cc7f7c
phil2006-02-10d01t08.flac:1036365111c1bed9d0942a7541debd96
phil2006-02-10d02t01.flac:527f167bc624627f9bd75776a0ea6dc4
phil2006-02-10d02t02.flac:9bce28e49283859a9dbf4475ce575c43
phil2006-02-10d02t03.flac:df9ad6d288b1d68c1764a089b3172059
phil2006-02-10d02t04.flac:cf9423e0fd637bcbaa9ad2ee1ed95a04
phil2006-02-10d02t05.flac:c6ad01a556cf568134043689f5562ecb
phil2006-02-10d02t06.flac:72ce56977e87f40788d76259ec63ea67
phil2006-02-10d03t01.flac:686e4955da1da93e34b0fee7c479e9b0
phil2006-02-10d03t02.flac:14911a55afe3e047172791732d9702ca
phil2006-02-10d03t03.flac:44905e7b86a296caf60771ea26f582be
phil2006-02-10d03t04.flac:02a918e4b556f2d08c46f0caeb768e0b
phil2006-02-10d03t05.flac:9f90e15606da2700b99bf6608e8a513e
phil2006-02-10d03t06.flac:7da765366536fd98fa97d7bf7b64a855
phil2006-02-10d03t07.flac:80807cd1bdc12231b66cd856f1869feb
phil2006-02-10d03t08.flac:445b29c242f1ac8ca2bce2f7a8cf055d

length     expanded size    cdr  WAVE problems  fmt   ratio  filename
     9:11.26       97257596 B   ---   --   ---xx   flac  0.5146  phil2006-02-10d01t01.flac
     3:46.27       39929948 B   ---   --   ---xx   flac  0.4675  phil2006-02-10d01t02.flac
    15:31.19      164273132 B   ---   --   ---xx   flac  0.4432  phil2006-02-10d01t03.flac
     8:08.21       86132636 B   ---   --   ---xx   flac  0.4752  phil2006-02-10d01t04.flac
     9:15.27       97965548 B   ---   --   ---xx   flac  0.5020  phil2006-02-10d01t05.flac
    15:27.17      163562828 B   ---   --   ---xx   flac  0.4812  phil2006-02-10d01t06.flac
     6:54.67       73187228 B   ---   --   ---xx   flac  0.5378  phil2006-02-10d01t07.flac
    10:02.29      106261052 B   ---   --   ---xx   flac  0.5203  phil2006-02-10d01t08.flac
     1:51.44       19683932 B   ---   --   ---xx   flac  0.3859  phil2006-02-10d02t01.flac
    14:10.43      150041180 B   ---   --   ---xx   flac  0.5108  phil2006-02-10d02t02.flac
    11:03.40      117047324 B   ---   --   ---xx   flac  0.4935  phil2006-02-10d02t03.flac
    12:10.36      128856716 B   ---   --   ---xx   flac  0.4831  phil2006-02-10d02t04.flac
     6:46.55       71747804 B   ---   --   ---xx   flac  0.4883  phil2006-02-10d02t05.flac
    13:39.01      144473996 B   ---   --   ---xx   flac  0.4913  phil2006-02-10d02t06.flac
     8:00.29       84740252 B   ---   --   ---xx   flac  0.4937  phil2006-02-10d03t01.flac
    12:11.05      128960204 B   ---   --   ---xx   flac  0.5186  phil2006-02-10d03t02.flac
     4:16.68       45318380 B   ---   --   ---xx   flac  0.5343  phil2006-02-10d03t03.flac
     4:49.43       51080780 B   ---   --   ---xx   flac  0.5592  phil2006-02-10d03t04.flac
    11:29.73      121711340 B   ---   --   ---xx   flac  0.5525  phil2006-02-10d03t05.flac
     3:14.46       34329836 B   ---   --   ---xx   flac  0.3804  phil2006-02-10d03t06.flac
     1:40.34       17720012 B   ---   --   ---xx   flac  0.4135  phil2006-02-10d03t07.flac
     7:18.25       77322044 B   ---   --   ---xx   flac  0.5480  phil2006-02-10d03t08.flac
   191:00.25     2021603768 B                            0.4980  (22 files)





More information about the bittorrent mailing list