[bittorrent] Tom Constanten Solo Majestic Theatre Detroit, Michigan 2/23/2006 (New To Circulation)

Automated Mailer noreply-bt.e at etree.org
Thu May 28 03:32:43 UTC 2020


Band:           Other
Torrent Name:   Tom Constanten Solo Majestic Theatre Detroit, Michigan 2/23/2006 (New To Circulation)
Uploaded by:    zmanatl
DB Link:        
Details:        http://bt.etree.org/details.php?id=609778

Contact the seeder at http://db.etree.org/zmanatl

If the link to this show does not work, it was probably removed for
being non-trade-friendly.

Description / text file:
-------------------------
Tom Constanten Solo
Majestic Theatre
Detroit, Michigan
2/23/2006

Source: Core Sound Cardioid Mics>Sony D-8 (48K)
FOB/DFC/KFC/ZFC 50' From Stage, 4 1/2' High
DSP: Sound Devices 722>Sound Forge 10.0>CD Wave>flac(16)
ID3 Tagged In Foobar 2000
Recorded By: Z-Man 
Seeded By: Z-Man
A Team Dirty South Recording

Disc I 

01 Mountains Of The Moon >
02 Dark Star >
03 Wreck Of The Edmund Fitzgerald 
04 House Of The Rising Sun >
05 ?
06 FCC Song
07 All Along The Watchtower
08 *#@^Deal

* With Slick Aguilar Of The Jefferson Starship On Guitar
# With Prairie Prince Of The Jefferson Starship On Drums
@ With Chris Smith Of The Jefferson Starship On Bass 
^ With Linda Imperiol Of The Jefferson Starship On Vocals  

I pulled out a hard drive from 2006. This was a show I taped in Detroit. No stands were allowed. I did 
not have a hat, so I had to lay the mics on the top of the front of the Soundboard. Unfortunately, a super chatty
crowd, so this is fair at best. Do not remember if there were any other tapers. I have never seen this show posted,
so I do not believe anyone else taped it. 

tom2006-02-23d01t01.flac:15e9171b1ee298fc3ebee8bbc52023bc
tom2006-02-23d01t02.flac:63bae9b373b70fa2a9078b56583ec8c2
tom2006-02-23d01t03.flac:5bc7cf594b9341ca7827000ed7c52dbd
tom2006-02-23d01t04.flac:b735f4b3d18f0bfa55322a5f1939c984
tom2006-02-23d01t05.flac:4e32f8c5d35c5c9d2a8186f93e989537
tom2006-02-23d01t06.flac:8a9f902714065bb0f5e15f2793a0fda7
tom2006-02-23d01t07.flac:2563b787c3354775b6be091c1260aee7
tom2006-02-23d01t08.flac:39c793beffabbfa6fa877bcacb267b33

 length     expanded size    cdr  WAVE problems  fmt   ratio  filename
     3:01.55       32057804 B   ---   --   ---xx   flac  0.3766  tom2006-02-23d01t01.flac
     2:27.20       25977884 B   ---   --   ---xx   flac  0.4112  tom2006-02-23d01t02.flac
     4:59.72       52912988 B   ---   --   ---xx   flac  0.4238  tom2006-02-23d01t03.flac
     2:50.05       29999804 B   ---   --   ---xx   flac  0.4092  tom2006-02-23d01t04.flac
     3:29.58       37004060 B   ---   --   ---xx   flac  0.4332  tom2006-02-23d01t05.flac
     2:58.23       31453340 B   ---   --   ---xx   flac  0.4342  tom2006-02-23d01t06.flac
     4:05.62       43363868 B   ---   --   ---xx   flac  0.4167  tom2006-02-23d01t07.flac
     7:56.63       84114620 B   ---   --   ---xx   flac  0.4348  tom2006-02-23d01t08.flac
    31:49.58      336884368 B                            0.4209  (8 files)






More information about the bittorrent mailing list