[bittorrent] gd1971-12-15.149830.sbd.mr.miller.flac24

Automated Mailer noreply-bt.e at etree.org
Sun May 24 04:27:48 UTC 2020


Band:           Grateful Dead
Torrent Name:   gd1971-12-15.149830.sbd.mr.miller.flac24
Uploaded by:    norm
DB Link:        
Details:        http://bt.etree.org/details.php?id=609763

Contact the seeder at http://db.etree.org/norm

If the link to this show does not work, it was probably removed for
being non-trade-friendly.

Description / text file:
-------------------------
Grateful Dead - December 15, 1971
Hill Auditorium - Ann Arbor, MI

Recording Info:
SBD > Master Reel > Pro Tools > FLAC/24

Mastering Info:
FLAC/24 > Adobe Audition CC2015 > Samplitude Pro X4 Suite > FLAC/24
(1 DVD FLAC)

Recorded by Ramrod
Transferred by Rob Eaton
Mastered by Charlie Miller
charliemiller87 at earthlink.net
April 3, 2020

Notes:
-- There were a lot of tape pauses which were patched with Rob Eaton's FM Dats
-- Lovelight contains I'm A King Bee and I'm A Man verses
-- All sources used for this project were supplied by Rob Eaton
-- Thanks to Joe B. Jones for his help with the pitch correction

Set 1:
01 - Introduction
02 - Bertha
03 - Me And Bobby McGee
04 - Mr. Charlie
05 - China Cat Sunflower >
06 - I Know You Rider >
07 - Beat It On Down The Line
08 - It Hurts Me Too
09 - Cumberland Blues
10 - Jack Straw
11 - You Win Again
12 - Run Rudolph Run
13 - Playing In The Band
14 - Brown Eyed Women
15 - Mexicali Blues
16 - Big Railroad Blues
17 - Brokedown Palace
18 - El Paso
19 - Casey Jones

Set 2:
20 - Dark Star >
21 - Deal
22 - Stars And Stripes Forever
23 - Sugar Magnolia
24 - Turn On Your Lovelight
25 - One More Saturday Night

Encore:
26 - Uncle John's Band


SHNTOOL OUTPUT:
    length     expanded size    cdr  WAVE problems  fmt   ratio  filename
     3:17.529     113776532 B   cxx   --   ---xx   flac  0.5088  01 Introduction.flac
     6:04.143     209746352 B   cxx   --   ---xx   flac  0.6449  02 Bertha.flac
     6:11.068     213735392 B   cxx   --   ---xx   flac  0.6407  03 Me And Bobby McGee.flac
     4:12.506     145443464 B   cxx   --   ---xx   flac  0.6431  04 Mr Charlie.flac
     5:21.857     185389886 B   cxx   --   ---xx   flac  0.6713  05 China Cat Sunflower.flac
     7:18.447     252545402 B   cxx   --   ---xx   flac  0.6287  06 I Know You Rider.flac
     4:01.720     139230560 B   cxx   --   ---xx   flac  0.6174  07 Beat It On Down The Line.flac
     8:46.524     303277628 B   cxx   --   ---xx   flac  0.6345  08 It Hurts Me Too.flac
     5:03.503     174818036 B   cxx   --   ---xx   flac  0.6657  09 Cumberland Blues.flac
     5:48.826     200923844 B   cxx   --   ---xx   flac  0.6450  10 Jack Straw.flac
     4:43.426     163253612 B   cxx   --   ---xx   flac  0.6328  11 You Win Again.flac
     5:48.054     200479382 B   cxx   --   ---xx   flac  0.5926  12 Run Rudolph Run.flac
     6:44.284     232867688 B   cxx   --   ---xx   flac  0.6435  13 Playing In The Band.flac
     5:54.571     204232730 B   cxx   --   ---xx   flac  0.6243  14 Brown Eyed Women.flac
     3:45.793     130056806 B   cxx   --   ---xx   flac  0.6291  15 Mexicali Blues.flac
     4:55.439     170172776 B   cxx   --   ---xx   flac  0.6288  16 Big Railroad Blues.flac
     8:17.497     286558430 B   cxx   --   ---xx   flac  0.6175  17 Brokedown Palace.flac
     4:26.237     153352622 B   cxx   --   ---xx   flac  0.6301  18 El Paso.flac
     5:28.832     189407066 B   cxx   --   ---xx   flac  0.6256  19 Casey Jones.flac
    20:16.371     700629506 B   cxx   --   ---xx   flac  0.6742  20 Dark Star.flac
     7:31.185     259882778 B   cxx   --   ---xx   flac  0.6448  21 Deal.flac
     1:08.688      39564284 B   cxx   --   ---xx   flac  0.6018  22 Stars And Stripes Forever.flac
     7:04.544     244537274 B   cxx   --   ---xx   flac  0.6326  23 Sugar Magnolia.flac
    20:12.199     698226434 B   cxx   --   ---xx   flac  0.6221  24 Turn On Your Lovelight.flac
     4:56.482     170773418 B   cxx   --   ---xx   flac  0.6414  25 One More Saturday Night.flac
     6:32.041     225815672 B   cxx   --   ---xx   flac  0.6426  26 Uncle John's Band.flac
   173:51.765    6008697574 B                            0.6356  (26 files)



More information about the bittorrent mailing list