[bittorrent] gr8FL dude & frenz Contrast Artisan Ales Chamblee, , Georgia 5/23/2020 (Schoeps CCM4V'S FOB)

Automated Mailer noreply-bt.e at etree.org
Sun May 24 03:07:08 UTC 2020


Band:           Other
Torrent Name:   gr8FL dude & frenz  Contrast Artisan Ales Chamblee,,Georgia 5/23/2020 (Schoeps CCM4V'S FOB)
Uploaded by:    zmanatl
DB Link:        
Details:        http://bt.etree.org/details.php?id=609762

Contact the seeder at http://db.etree.org/zmanatl

If the link to this show does not work, it was probably removed for
being non-trade-friendly.

Description / text file:
-------------------------
gr8FL dude & frenz 
Contrast Artisan Ales
Chamblee, Georgia
5/23/2020

Source: Schoeps CCM4V'S>Lunatec V2>Sound Devices 722 (24/44.1)
FOB/DFC/KFC/ZFC/AARP 10' From Stage, 6 1/2' High
DSP: Sound Devices 722>Sound Forge 10.0>CD Wave>flac(16)
ID3 Tagged In Foobar 2000
Recorded By: Z-Man 
Seeded By: Z-Man
A Team Dirty South Recording

Disc I 1st Set

01 Bertha
02 Jack Straw
03 Band Introductions
04 Nature Rules
05 Blues Power
06 Peggy-O
07 Steve-O
08 *Wild Horses
09 Uncle John's Band
10 Dancin' In The Street 

Disc II 2nd Set 

01 Scarlet Begonias >
02 Altheas
03 Southern Bluez
04 Mr. Charlie
05 Eyes Of The World >
06 Goin' Down The Road Feelin' Bad >
07 Not Fade Away >
08 Free To Roam 

Disc III 2nd Set Con't

01 Sugar Magnolia
02 Banter
03 #One More Saturday Night
Encore:
04 Thanks
05 Ripple >
06 Brokedown Palace

* Second Time Played
# Dedicated To Fletcher Robinson Recovering Back To Health

Lewis Newmark - Guitar And Vocals
Russell "RB" Brown - Guitar And Vocals
Malcom Fields - Bass And Vocals
Diane Rabson - Keyboards And Vocals
Ryan Marcus - Drums 

gr8fl2020-05-23d01t01.flac:d9a53a64cd1b9bfad16d8c5543dc76ff
gr8fl2020-05-23d01t02.flac:ee028e6ac87622c57e4db4bddc78ef4b
gr8fl2020-05-23d01t03.flac:d92abd326edae538ec93afc19ff4308a
gr8fl2020-05-23d01t04.flac:71ac8bf60d624a7e46d2ab146c6eb7d4
gr8fl2020-05-23d01t05.flac:fe5363e4f645697ba2938493767e6955
gr8fl2020-05-23d01t06.flac:331796575b122813762206afe639a5a1
gr8fl2020-05-23d01t07.flac:33e991743ab45f96798aa72d0f703072
gr8fl2020-05-23d01t08.flac:7a4ca423f88448b80b6f2fa8eab3e1ff
gr8fl2020-05-23d01t09.flac:adee0d9ba20c6dbfc33cae753ed2d3f2
gr8fl2020-05-23d01t10.flac:86d2da4a8882eedf941a4504f4173e6f
gr8fl2020-05-23d02t01.flac:9c9b3736c544cb0a7a29bd03bd38887d
gr8fl2020-05-23d02t02.flac:ca7de41e15d50b489135e60a50118a50
gr8fl2020-05-23d02t03.flac:6091a990fa528b5167eaa3b564c597e8
gr8fl2020-05-23d02t04.flac:824d0a91d0ede415bb2ac34b02dab8cd
gr8fl2020-05-23d02t05.flac:cae44ac0970e082084f5a2a82b92bff0
gr8fl2020-05-23d02t06.flac:4beb8e9a542616af09925ef6ac7369c2
gr8fl2020-05-23d02t07.flac:5008c1504e52ef5dd50a3e16dd9de66d
gr8fl2020-05-23d02t08.flac:69cd493fdf2193f32e201952a5f1685f
gr8fl2020-05-23d03t01.flac:e3e5eba801200fed135f0305f41bba8f
gr8fl2020-05-23d03t02.flac:c89f723ab7e72d353937b15a901a4ab6
gr8fl2020-05-23d03t03.flac:c3b72fb7f79a356e50544d95e1b70b6a
gr8fl2020-05-23d03t04.flac:1f70a22d6fbefb6b15e4456efe651567
gr8fl2020-05-23d03t05.flac:da013fc8b6eb57a17a74b1eee3a3f129
gr8fl2020-05-23d03t06.flac:23e159bb0526f1eeb4be6e1e780cd2cc

 length     expanded size    cdr  WAVE problems  fmt   ratio  filename
     9:00.24       95312492 B   ---   --   ---xx   flac  0.5430  gr8fl2020-05-23d01t01.flac
     6:38.10       70230764 B   ---   --   ---xx   flac  0.5013  gr8fl2020-05-23d01t02.flac
     1:02.02       10941548 B   ---   --   ---xx   flac  0.3671  gr8fl2020-05-23d01t03.flac
     9:19.58       98744060 B   ---   --   ---xx   flac  0.4505  gr8fl2020-05-23d01t04.flac
     8:07.62       86052668 B   ---   --   ---xx   flac  0.4514  gr8fl2020-05-23d01t05.flac
     8:31.20       90187484 B   ---   --   ---xx   flac  0.3760  gr8fl2020-05-23d01t06.flac
     7:22.11       77994716 B   ---   --   ---xx   flac  0.3957  gr8fl2020-05-23d01t07.flac
     9:30.34      100628012 B   ---   --   ---xx   flac  0.3878  gr8fl2020-05-23d01t08.flac
     9:45.61      103337516 B   ---   --   ---xx   flac  0.4665  gr8fl2020-05-23d01t09.flac
    10:37.66      112522076 B   ---   --   ---xx   flac  0.4726  gr8fl2020-05-23d01t10.flac
    10:26.09      110447612 B   ---   --   ---xx   flac  0.4591  gr8fl2020-05-23d02t01.flac
     9:53.17      104645228 B   ---   --   ---xx   flac  0.4505  gr8fl2020-05-23d02t02.flac
    10:49.01      114485996 B   ---   --   ---xx   flac  0.4075  gr8fl2020-05-23d02t03.flac
     6:21.01       67210796 B   ---   --   ---xx   flac  0.4494  gr8fl2020-05-23d02t04.flac
    10:50.04      114669452 B   ---   --   ---xx   flac  0.4539  gr8fl2020-05-23d02t05.flac
     6:43.18       71131580 B   ---   --   ---xx   flac  0.4807  gr8fl2020-05-23d02t06.flac
     8:08.60       86224364 B   ---   --   ---xx   flac  0.4199  gr8fl2020-05-23d02t07.flac
     9:50.28      104141900 B   ---   --   ---xx   flac  0.4955  gr8fl2020-05-23d02t08.flac
    11:11.68      118524380 B   ---   --   ---xx   flac  0.4612  gr8fl2020-05-23d03t01.flac
     2:48.32       29710508 B   ---   --   ---xx   flac  0.2618  gr8fl2020-05-23d03t02.flac
     5:06.44       54081932 B   ---   --   ---xx   flac  0.5024  gr8fl2020-05-23d03t03.flac
     1:16.00       13406444 B   ---   --   ---xx   flac  0.2398  gr8fl2020-05-23d03t04.flac
     5:45.06       60872156 B   ---   --   ---xx   flac  0.3912  gr8fl2020-05-23d03t05.flac
     7:15.40       76828124 B   ---   --   ---xx   flac  0.4044  gr8fl2020-05-23d03t06.flac
   186:21.01     1972331808 B                            0.4441  (24 files)





More information about the bittorrent mailing list