[bittorrent] gd1987-07-10.149959.sbd.beta.HiFi.master(mono).miller.flac16

Automated Mailer noreply-bt.e at etree.org
Sat May 23 03:30:20 UTC 2020


Band:           Grateful Dead
Torrent Name:   gd1987-07-10.149959.sbd.beta.HiFi.master(mono).miller.flac16
Uploaded by:    norm
DB Link:        
Details:        http://bt.etree.org/details.php?id=609756

Contact the seeder at http://db.etree.org/norm

If the link to this show does not work, it was probably removed for
being non-trade-friendly.

Description / text file:
-------------------------
Grateful Dead - July 10, 1987
JFK Stadium - Philadelphia, PA

Recording Info:
SBD (Mono) > Beta HiFi Master (TDK HS)

Transfer Info:
Beta HiFi Master (Sony SL-HF66) > Tascam DA-3000 (DSF 1-bit/5.6MHz) >
dBpoweramp > Samplitude Pro X4 Suite > FLAC/24
(1 DVD FLAC)

All Transfers and Mastering By Charlie Miller
charliemiller87 at earthlink.net
May 6, 2020

Notes:
-- Recorded by Don Pearson and Dan Healy
-- This is a scratchy Mono Soundboard (no ambient mic) pulled off the video tape
-- This file set is 16 bit @ 44.1

Set 1:
01 - Iko Iko
02 - Jack Straw
03 - Sugaree
04 - New Minglewood Blues
05 - Althea
06 - My Brother Esau
07 - Take A Step Back / Mexican Hat Dance Tuning
08 - When Push Comes To Shove
09 - Cassidy
10 - China Cat Sunflower >
11 - I Know You Rider
12 - Looks Like Rain >
13 - Terrapin Station >
14 - Drums >
15 - Space >
16 - I Need A Miracle >
17 - Black Peter >
18 - Around And Around (cut)


SHNTOOL OUTPUT:
    length     expanded size    cdr  WAVE problems  fmt   ratio  filename
     7:46.13       82233020 B   ---   --   ---xx   flac  0.5004  01 Iko Iko.flac
     6:18.49       66794492 B   ---   --   ---xx   flac  0.4871  02 Jack Straw.flac
     8:40.08       91746860 B   ---   --   ---xx   flac  0.4836  03 Sugaree.flac
     8:43.59       92396012 B   ---   --   ---xx   flac  0.4851  04 New Minglewood Blues.flac
     7:53.19       83481932 B   ---   --   ---xx   flac  0.4636  05 Althea.flac
     4:59.72       52912988 B   ---   --   ---xx   flac  0.4795  06 My Brother Esau.flac
     1:35.09       16779212 B   ---   --   ---xx   flac  0.4452  07 Take A Step Back _ Mexican Hat Dance Tuning.flac
     6:07.04       64748252 B   ---   --   ---xx   flac  0.4826  08 When Push Comes To Shove.flac
     8:03.49       85316492 B   ---   --   ---xx   flac  0.4817  09 Cassidy.flac
     5:28.30       57929804 B   ---   --   ---xx   flac  0.4901  10 China Cat Sunflower.flac
     6:22.65       67537724 B   ---   --   ---xx   flac  0.4737  11 I Know You Rider.flac
     8:28.73       89782940 B   ---   --   ---xx   flac  0.4713  12 Looks Like Rain.flac
    10:49.01      114485996 B   ---   --   ---xx   flac  0.4756  13 Terrapin Station.flac
     9:34.16      101291276 B   ---   --   ---xx   flac  0.4293  14 Drums.flac
     4:12.68       44612780 B   ---   --   ---xx   flac  0.4313  15 Space.flac
     5:27.51       57802796 B   ---   --   ---xx   flac  0.4959  16 I Need A Miracle.flac
     7:53.32       83512508 B   ---   --   ---xx   flac  0.4761  17 Black Peter.flac
     2:29.67       26441228 B   ---   --   ---xx   flac  0.4873  18 Around And Around.flac
   120:55.10     1279806312 B                            0.4750  (18 files)



More information about the bittorrent mailing list