[bittorrent] Magnolia Express Russell Brown's House Atlanta, Georgia 5/22/2020 (Schoeps CCM4V'S FOB)

Automated Mailer noreply-bt.e at etree.org
Sat May 23 03:24:11 UTC 2020


Band:           Other
Torrent Name:   Magnolia Express Russell Brown's House Atlanta, Georgia 5/22/2020 (Schoeps CCM4V'S FOB)
Uploaded by:    zmanatl
DB Link:        
Details:        http://bt.etree.org/details.php?id=609755

Contact the seeder at http://db.etree.org/zmanatl

If the link to this show does not work, it was probably removed for
being non-trade-friendly.

Description / text file:
-------------------------
Magnolia Express
Russell Brown's House
Atlanta, Georgia
5/22/2020

Source: Schoeps CCM4V'S>Lunatec V2>Sound Devices 722 (24/44.1)
FOB/DFC/KFC/ZFC/AARP 6' From Stage, 3 1/2' High
DSP: Sound Devices 722>Sound Forge 10.0>CD Wave>flac(16)
ID3 Tagged In Foobar 2000
Recorded By: Z-Man 
Seeded By: Z-Man
A Team Dirty South Recording

Disc I 

01 Greeting/Introduction By Z-Man
02 Foggy Mountain Breakdown
03 Long Way To Go 
04 Mama Tried >
05 I Know You Rider
06 Rosalie McFall
07 Cardboard Box
08 Me And My Uncle
09 Cumberland Blues
10 Nellie Cain
11 Shady Grove >
12 The Devil Went Down To Georgia
13 *Sympathy For The Devil 
14 Midnight Moonlight

* First Time Played  

Russell Brown - Guitar And Vocals
Scott Balum - Bass
Jacques Dolan - Fiddle
Joe Kimsey - BanJo
Jared Womack - Dobro

magnolia2020-05-22d01t01.flac:62fd4116da9f7746e3a6031b0c3f15fe
magnolia2020-05-22d01t02.flac:f6b42274087985ac051efead6d39d23d
magnolia2020-05-22d01t03.flac:8362e395dbdb3bd84d8cfd1c5680cbfa
magnolia2020-05-22d01t04.flac:f196838eb0200ab427d38de4293c47f0
magnolia2020-05-22d01t05.flac:f7f59a0b312e9672cecc6f6fe9d7be23
magnolia2020-05-22d01t06.flac:002d3f2caca83342598ecceaea461c3e
magnolia2020-05-22d01t07.flac:53922a9c724d15a49d8d0e310e70d96f
magnolia2020-05-22d01t08.flac:015da4b5c128f9b20644adb001868753
magnolia2020-05-22d01t09.flac:d00fc9b19ba899b2c05a9cd4e729382a
magnolia2020-05-22d01t10.flac:fdb49480d0668ecec9497291fba6417f
magnolia2020-05-22d01t11.flac:2a4536b3e0d40455fa035668ca42231a
magnolia2020-05-22d01t12.flac:aa300c9ca4ddfc049951392c9fbdf8da
magnolia2020-05-22d01t13.flac:7b377e600c3b49e6929db052bd1402ec
magnolia2020-05-22d01t14.flac:6131993d82f52f3c5d79db77a048a13b

 length     expanded size    cdr  WAVE problems  fmt   ratio  filename
     2:06.54       22353452 B   ---   --   ---xx   flac  0.3902  magnolia2020-05-22d01t01.flac
     3:58.40       42077324 B   ---   --   ---xx   flac  0.5109  magnolia2020-05-22d01t02.flac
     5:58.35       63233564 B   ---   --   ---xx   flac  0.4722  magnolia2020-05-22d01t03.flac
     2:22.27       25112348 B   ---   --   ---xx   flac  0.5025  magnolia2020-05-22d01t04.flac
     5:34.52       59039948 B   ---   --   ---xx   flac  0.5040  magnolia2020-05-22d01t05.flac
     4:39.32       49290908 B   ---   --   ---xx   flac  0.4677  magnolia2020-05-22d01t06.flac
    11:10.30      118258604 B   ---   --   ---xx   flac  0.4512  magnolia2020-05-22d01t07.flac
     4:45.41       50370476 B   ---   --   ---xx   flac  0.4895  magnolia2020-05-22d01t08.flac
     9:02.07       95625308 B   ---   --   ---xx   flac  0.4704  magnolia2020-05-22d01t09.flac
     4:19.40       45781724 B   ---   --   ---xx   flac  0.4917  magnolia2020-05-22d01t10.flac
     3:54.11       41303516 B   ---   --   ---xx   flac  0.4570  magnolia2020-05-22d01t11.flac
     3:32.00       37396844 B   ---   --   ---xx   flac  0.4906  magnolia2020-05-22d01t12.flac
     8:33.60       90634364 B   ---   --   ---xx   flac  0.4796  magnolia2020-05-22d01t13.flac
     9:51.14      104285372 B   ---   --   ---xx   flac  0.4699  magnolia2020-05-22d01t14.flac
    79:48.68      844763752 B                            0.4743  (14 files)






More information about the bittorrent mailing list