[bittorrent] gd1987-07-10.149827.sbd.beta.HiFi.master(mono).miller.flac24

Automated Mailer noreply-bt.e at etree.org
Fri May 22 20:39:08 UTC 2020


Band:           Grateful Dead
Torrent Name:   gd1987-07-10.149827.sbd.beta.HiFi.master(mono).miller.flac24
Uploaded by:    norm
DB Link:        
Details:        http://bt.etree.org/details.php?id=609749

Contact the seeder at http://db.etree.org/norm

If the link to this show does not work, it was probably removed for
being non-trade-friendly.

Description / text file:
-------------------------
Grateful Dead - July 10, 1987
JFK Stadium - Philadelphia, PA

Recording Info:
SBD (Mono) > Beta HiFi Master (TDK HS)

Transfer Info:
Beta HiFi Master (Sony SL-HF66) > Tascam DA-3000 (DSF 1-bit/5.6MHz) >
dBpoweramp > Samplitude Pro X4 Suite > FLAC/24
(1 DVD FLAC)

All Transfers and Mastering By Charlie Miller
charliemiller87 at earthlink.net
May 6, 2020

Notes:
-- Recorded by Don Pearson and Dan Healy
-- This is a scratchy Mono Soundboard (no ambient mic) pulled off the video tape

Set 1:
01 - Iko Iko
02 - Jack Straw
03 - Sugaree
04 - New Minglewood Blues
05 - Althea
06 - My Brother Esau
07 - Take A Step Back / Mexican Hat Dance Tuning
08 - When Push Comes To Shove
09 - Cassidy
10 - China Cat Sunflower >
11 - I Know You Rider
12 - Looks Like Rain >
13 - Terrapin Station >
14 - Drums >
15 - Space >
16 - I Need A Miracle >
17 - Black Peter >
18 - Around And Around (cut)


SHNTOOL OUTPUT:
    length     expanded size    cdr  WAVE problems  fmt   ratio  filename
     7:46.179     268518956 B   cxx   --   ---xx   flac  0.5839  01 Iko Iko.flac
     6:18.655     218105210 B   cxx   --   ---xx   flac  0.5686  02 Jack Straw.flac
     8:40.109     299582960 B   cxx   --   ---xx   flac  0.5685  03 Sugaree.flac
     8:43.789     301702706 B   cxx   --   ---xx   flac  0.5688  04 New Minglewood Blues.flac
     7:53.250     272591948 B   cxx   --   ---xx   flac  0.5592  05 Althea.flac
     4:59.963     172778834 B   cxx   --   ---xx   flac  0.5656  06 My Brother Esau.flac
     1:35.120      54789074 B   cxx   --   ---xx   flac  0.5496  07 Take A Step Back _ Mexican Hat Dance Tuning.flac
     6:07.052     211422272 B   cxx   --   ---xx   flac  0.5685  08 When Push Comes To Shove.flac
     8:03.647     278580602 B   cxx   --   ---xx   flac  0.5663  09 Cassidy.flac
     5:28.396     189156176 B   cxx   --   ---xx   flac  0.5681  10 China Cat Sunflower.flac
     6:22.879     220538438 B   cxx   --   ---xx   flac  0.5614  11 I Know You Rider.flac
     8:28.964     293163596 B   cxx   --   ---xx   flac  0.5619  12 Looks Like Rain.flac
    10:49.012     373830842 B   cxx   --   ---xx   flac  0.5657  13 Terrapin Station.flac
     9:34.222     330751988 B   cxx   --   ---xx   flac  0.5404  14 Drums.flac
     4:12.896     145668422 B   cxx   --   ---xx   flac  0.5443  15 Space.flac
     5:27.681     188744396 B   cxx   --   ---xx   flac  0.5740  16 I Need A Miracle.flac
     7:53.435     272698628 B   cxx   --   ---xx   flac  0.5677  17 Black Peter.flac
     2:29.883      86332382 B   cxx   --   ---xx   flac  0.5701  18 Around And Around.flac
   120:55.133    4178957430 B                            0.5645  (18 files)



More information about the bittorrent mailing list