[bittorrent] gd1987-07-10.149955.UltraMatrix.sbd.cm.miller.flac16

Automated Mailer noreply-bt.e at etree.org
Fri May 22 15:07:42 UTC 2020


Band:           Grateful Dead
Torrent Name:   gd1987-07-10.149955.UltraMatrix.sbd.cm.miller.flac16
Uploaded by:    norm
DB Link:        
Details:        http://bt.etree.org/details.php?id=609744

Contact the seeder at http://db.etree.org/norm

If the link to this show does not work, it was probably removed for
being non-trade-friendly.

Description / text file:
-------------------------
Grateful Dead - July 10, 1987
JFK Stadium - Philadelphia, PA

Recording Info:
UltraMatrix SBD > Cassette Master (TDK MA-R90)

Transfer Info:
Cassette Master (Nakamichi CR-7A) > Tascam DA-3000 (DSF 1-bit/5.6MHz) >
dBpoweramp > Adobe Audition CC 2015 > Samplitude Pro X4 Suite > FLAC/24
(1 DVD FLAC)

All Transfers and Mastering By Charlie Miller
charliemiller87 at earthlink.net
May 6, 2020

Notes:
-- Recorded by Don Pearson and Dan Healy
-- Multiple sets of masters were used to make this show complete
-- Set 2 is The Grateful Dead with Bob Dylan
-- This file set is 16 bit @ 44.1

Set 1:
01 - Tuning
02 - Iko Iko
03 - Jack Straw
04 - Sugaree
05 - New Minglewood Blues
06 - Althea
07 - My Brother Esau
08 - Take A Step Back / Mexican Hat Dance Tuning
09 - When Push Comes To Shove
10 - Cassidy
11 - China Cat Sunflower >
12 - I Know You Rider
13 - Looks Like Rain >
14 - Terrapin Station >
15 - Drums >
16 - Space >
17 - I Need A Miracle >
18 - Black Peter >
19 - Around And Around >
20 - One More Saturday Night

Set 2:
21 - Tangled Up In Blue
22 - I'll Be Your Baby Tonight
23 - Man Of Peace
24 - The Ballad Of Frankie Lee And Judas Priest
25 - John Brown
26 - Simple Twist Of Fate
27 - Ballad Of A Thin Man
28 - Stuck Inside Of Mobile With The Memphis Blues Again
29 - Chimes Of Freedom
30 - Queen Jane Approximately
31 - Gotta Serve Somebody
32 - Joey
33 - All Along The Watchtower

Encore:
34 - Encore Break
35 - Touch Of Grey


SHNTOOL OUTPUT:
    length     expanded size    cdr  WAVE problems  fmt   ratio  filename
     0:51.50        9114044 B   ---   --   ---xx   flac  0.6324  01 Tuning.flac
     7:44.20       81896684 B   ---   --   ---xx   flac  0.6875  02 Iko Iko.flac
     6:28.07       68459708 B   ---   --   ---xx   flac  0.6747  03 Jack Straw.flac
     8:30.24       90020492 B   ---   --   ---xx   flac  0.6805  04 Sugaree.flac
     8:44.05       92445404 B   ---   --   ---xx   flac  0.6749  05 New Minglewood Blues.flac
     7:21.02       77797148 B   ---   --   ---xx   flac  0.6689  06 Althea.flac
     4:59.68       52903580 B   ---   --   ---xx   flac  0.6945  07 My Brother Esau.flac
     1:35.00       16758044 B   ---   --   ---xx   flac  0.6219  08 Take A Step Back _ Mexican Hat Dance Tuning.flac
     6:07.20       64785884 B   ---   --   ---xx   flac  0.6797  09 When Push Comes To Shove.flac
     8:03.47       85311788 B   ---   --   ---xx   flac  0.6890  10 Cassidy.flac
     5:31.30       58459004 B   ---   --   ---xx   flac  0.7131  11 China Cat Sunflower.flac
     6:20.13       67062620 B   ---   --   ---xx   flac  0.6916  12 I Know You Rider.flac
     8:28.07       89627708 B   ---   --   ---xx   flac  0.6718  13 Looks Like Rain.flac
    10:50.50      114777644 B   ---   --   ---xx   flac  0.6173  14 Terrapin Station.flac
     9:33.73      101248940 B   ---   --   ---xx   flac  0.5572  15 Drums.flac
     4:12.61       44596316 B   ---   --   ---xx   flac  0.5472  16 Space.flac
     5:27.40       57776924 B   ---   --   ---xx   flac  0.6387  17 I Need A Miracle.flac
     7:53.35       83519564 B   ---   --   ---xx   flac  0.6231  18 Black Peter.flac
     4:20.14       45896972 B   ---   --   ---xx   flac  0.6398  19 Around And Around.flac
     5:04.43       53726780 B   ---   --   ---xx   flac  0.6405  20 One More Saturday Night.flac
     5:32.74       58738892 B   ---   --   ---xx   flac  0.6387  21 Tangled Up In Blue.flac
     5:12.61       55180316 B   ---   --   ---xx   flac  0.6165  22 I'll Be Your Baby Tonight.flac
     4:52.71       51675836 B   ---   --   ---xx   flac  0.6399  23 Man Of Peace.flac
     5:21.20       56671484 B   ---   --   ---xx   flac  0.6516  24 The Ballad Of Frankie Lee And Judas Priest.flac
     6:17.18       66545180 B   ---   --   ---xx   flac  0.6346  25 John Brown.flac
     6:02.69       64019132 B   ---   --   ---xx   flac  0.6278  26 Simple Twist Of Fate.flac
     5:27.56       57814556 B   ---   --   ---xx   flac  0.6471  27 Ballad Of A Thin Man.flac
     6:54.55       73159004 B   ---   --   ---xx   flac  0.6402  28 Stuck Inside Of Mobile With The Memphis Blues Again.flac
     5:57.74       63148892 B   ---   --   ---xx   flac  0.6498  29 Chimes Of Freedom.flac
     1:08.17       12035228 B   ---   --   ---xx   flac  0.5824  30 Queen Jane Approximately.flac
     4:23.05       46405004 B   ---   --   ---xx   flac  0.6504  31 Gotta Serve Somebody.flac
     9:39.73      102307340 B   ---   --   ---xx   flac  0.6298  32 Joey.flac
     4:49.68       51139580 B   ---   --   ---xx   flac  0.6575  33 All Along The Watchtower.flac
     2:45.66       29261276 B   ---   --   ---xx   flac  0.5625  34 Encore Break.flac
     8:19.47       88134188 B   ---   --   ---xx   flac  0.6514  35 Touch Of Grey.flac
   210:55.33     2232421156 B                            0.6473  (35 files)



More information about the bittorrent mailing list