[bittorrent] gr8FL dude & frenz Diane And John Rabson's House Roswell, Georgia 5/21/2020 (Schoeps CCM4V'S FOB)

Automated Mailer noreply-bt.e at etree.org
Fri May 22 04:51:23 UTC 2020


Band:           Other
Torrent Name:   gr8FL dude & frenz  Diane And John Rabson's House  Roswell, Georgia 5/21/2020 (Schoeps CCM4V'S FOB)
Uploaded by:    zmanatl
DB Link:        
Details:        http://bt.etree.org/details.php?id=609736

Contact the seeder at http://db.etree.org/zmanatl

If the link to this show does not work, it was probably removed for
being non-trade-friendly.

Description / text file:
-------------------------
gr8FL dude & frenz 
Diane And John Rabson's House
Roswell, Georgia
5/21/2020

Source: Schoeps CCM4V'S>Lunatec V2>Sound Devices 722 (24/44.1)
FOB/DFC/KFC/ZFC/AARP 8' From Stage, 6' High
DSP: Sound Devices 722>Sound Forge 10.0>CD Wave>flac(16)
ID3 Tagged In Foobar 2000
Recorded By: Z-Man 
Seeded By: Z-Man
A Team Dirty South Recording

Disc I 1st Set

01 Bertha
02 Jack Straw
03 Nature Rules
04 Blues Power
05 Peggy-O
06 Steve-O
07 *Wild Horses
08 Uncle John's Band
09 Dancin' In The Street 

Disc II 2nd Set 

01 Scarlet Begonias
02 Mr. Charlie
03 Goin' Down The Road Feelin' Bad >
04 Not Fade Away
05 Sugar Magnolia
Encore:
06 Brokedown Palace 

* First Time Played

Lewis Newmark - Guitar And Vocals
Malcom Fields - Bass And Vocals
Diane Rabson - Keyboards And Vocals
Ryan Marcus - Drums 

gr8fl2020-05-21d01t01.flac:ea466cbeb706d337be1a6c33eada6263
gr8fl2020-05-21d01t02.flac:37403631728839b91366da15969da223
gr8fl2020-05-21d01t03.flac:0b9d86e768356591c1a6be106f3df8e4
gr8fl2020-05-21d01t04.flac:523e2ba98a6d8f955a11986f67fcb17b
gr8fl2020-05-21d01t05.flac:c5c607c136d5156085c10d6e8f34f172
gr8fl2020-05-21d01t06.flac:7ee6d941319ba665f836415ff597979c
gr8fl2020-05-21d01t07.flac:1eee7ec269a3a3fd8c7fe40f8d8bca3a
gr8fl2020-05-21d01t08.flac:be8add150fc9b3a5e7efe117996a3325
gr8fl2020-05-21d01t09.flac:cd5cbbc5b46e1e4d3fd568d5568df6b4
gr8fl2020-05-21d02t01.flac:de14f1ecf94659e41447fd23fc33dd51
gr8fl2020-05-21d02t02.flac:85053afe89a905bb6a65893b8d334d35
gr8fl2020-05-21d02t03.flac:4917b38a47b26cc7de3aa5443bd861c2
gr8fl2020-05-21d02t04.flac:065d6888356754611d96460dd29f2cbe
gr8fl2020-05-21d02t05.flac:93d329722a1066fe81f0ef6fd4607c9c
gr8fl2020-05-21d02t06.flac:70a895889b7a8e5a29ad8e15c57d1787

length     expanded size    cdr  WAVE problems  fmt   ratio  filename
     9:22.05       99148604 B   ---   --   ---xx   flac  0.5383  gr8fl2020-05-21d01t01.flac
     7:18.26       77324396 B   ---   --   ---xx   flac  0.5201  gr8fl2020-05-21d01t02.flac
     8:16.61       87637916 B   ---   --   ---xx   flac  0.4900  gr8fl2020-05-21d01t03.flac
     6:41.73       70908140 B   ---   --   ---xx   flac  0.5348  gr8fl2020-05-21d01t04.flac
     8:14.00       87141644 B   ---   --   ---xx   flac  0.4290  gr8fl2020-05-21d01t05.flac
     5:53.08       62288060 B   ---   --   ---xx   flac  0.4904  gr8fl2020-05-21d01t06.flac
     7:16.00       76910444 B   ---   --   ---xx   flac  0.4497  gr8fl2020-05-21d01t07.flac
     8:52.33       93922460 B   ---   --   ---xx   flac  0.4972  gr8fl2020-05-21d01t08.flac
    10:01.23      106070540 B   ---   --   ---xx   flac  0.5238  gr8fl2020-05-21d01t09.flac
    10:15.10      108509564 B   ---   --   ---xx   flac  0.5333  gr8fl2020-05-21d02t01.flac
     5:23.47       57087788 B   ---   --   ---xx   flac  0.5516  gr8fl2020-05-21d02t02.flac
     7:39.64       81118172 B   ---   --   ---xx   flac  0.4963  gr8fl2020-05-21d02t03.flac
     9:06.56       96446156 B   ---   --   ---xx   flac  0.4966  gr8fl2020-05-21d02t04.flac
    10:43.51      113545196 B   ---   --   ---xx   flac  0.5628  gr8fl2020-05-21d02t05.flac
     7:09.04       75685052 B   ---   --   ---xx   flac  0.4625  gr8fl2020-05-21d02t06.flac
   122:14.11     1293744132 B                            0.5068  (15 files)









More information about the bittorrent mailing list