[bittorrent] Z-Man Monday Night Jam gr8FL dude & frenz Diane Rabson's House Roswell, Georgia 5/18/2020 (Schoeps CCM4V'S FOB)

Automated Mailer noreply-bt.e at etree.org
Tue May 19 14:04:53 UTC 2020


Band:           Other
Torrent Name:   Z-Man Monday Night Jam gr8FL dude & frenz  Diane Rabson's House  Roswell, Georgia 5/18/2020 (Schoeps CCM4V'S FOB)
Uploaded by:    zmanatl
DB Link:        
Details:        http://bt.etree.org/details.php?id=609715

Contact the seeder at http://db.etree.org/zmanatl

If the link to this show does not work, it was probably removed for
being non-trade-friendly.

Description / text file:
-------------------------
gr8FL dude & frenz 
Diane And John Rabso's House
Roswell, Georgia
5/18/2020

Source: Schoeps CCM4V'S>Lunatec V2>Sound Devices 722 (24/44.1)
FOB/DFC/KFC/ZFC/AARP 8' From Stage, 6 1/2' High
DSP: Sound Devices 722>Sound Forge 10.0>CD Wave>flac(16)
ID3 Tagged In Foobar 2000
Recorded By: Z-Man 
Seeded By: Z-Man
A Team Dirty South Recording

Disc I 1st Set

01 Jack Straw 
02 Revolution
03 El Paso
04 Bertha
05 Blues Power
06 Althea
07 *Uncle John's Band

Disc II 2nd Set 

01 Brown-Eyed Women 
02 Dancin' In The Street
03 Mr. Charlie
04 *Eyes Of The World >
05 Goin' Down The Road Feelin' Bad >
06 *Not Fade Away
Encore:
07 Ripple

* With Z-Man On Shaker Percussion

Lewis Newmark - Guitar And Vocals
Malcom Fields - Bass And Vocals
Diane Rabson - Keyboards And Vocals
Ryan Marcus - Drums 

gr8fl2020-05-18d01t01.flac:f1a5a45e90e6dd77abfbcdc10fa99641
gr8fl2020-05-18d01t02.flac:d7b9d0b8a9e23ba4df35e7e1a072fce1
gr8fl2020-05-18d01t03.flac:4a82a3ff31fa3a7f6cf7cf00c5e78889
gr8fl2020-05-18d01t04.flac:50d8458f3c0910119183316985180686
gr8fl2020-05-18d01t05.flac:4d978481221932895d90840ccfefeb99
gr8fl2020-05-18d01t06.flac:c8346afb140641820ece9047b58ba688
gr8fl2020-05-18d01t07.flac:7f0b8314a045943cff416bb66c3f6fe4
gr8fl2020-05-19d02t01.flac:209ead1119ef8cbd931479b9d441c150
gr8fl2020-05-19d02t02.flac:74b36eb67a33ef5b0390ef2e06e61b11
gr8fl2020-05-19d02t03.flac:0615c6ab6a56f4a095223fc631554c81
gr8fl2020-05-19d02t04.flac:f7370acbc106eecc19bea1a2254d15cd
gr8fl2020-05-19d02t05.flac:040cd807e50e65bb176eb1c929aab337
gr8fl2020-05-19d02t06.flac:c6aafa8f7e84a9b5a7d7e922c5bbc8a9
gr8fl2020-05-19d02t07.flac:e680e6c5bd5ce92471e37531bcdc934f

length     expanded size    cdr  WAVE problems  fmt   ratio  filename
     7:07.23       75376940 B   ---   --   ---xx   flac  0.4900  gr8fl2020-05-18d01t01.flac
     5:18.53       56219900 B   ---   --   ---xx   flac  0.5197  gr8fl2020-05-18d01t02.flac
     6:58.37       73822268 B   ---   --   ---xx   flac  0.4833  gr8fl2020-05-18d01t03.flac
     9:47.09      103568012 B   ---   --   ---xx   flac  0.5482  gr8fl2020-05-18d01t04.flac
     6:49.04       72157052 B   ---   --   ---xx   flac  0.5355  gr8fl2020-05-18d01t05.flac
     8:18.14       87880172 B   ---   --   ---xx   flac  0.5236  gr8fl2020-05-18d01t06.flac
    10:38.49      112658492 B   ---   --   ---xx   flac  0.5422  gr8fl2020-05-18d01t07.flac
     7:46.50       82320044 B   ---   --   ---xx   flac  0.5113  gr8fl2020-05-19d02t01.flac
    13:23.00      141649244 B   ---   --   ---xx   flac  0.5226  gr8fl2020-05-19d02t02.flac
     5:04.11       53651516 B   ---   --   ---xx   flac  0.5376  gr8fl2020-05-19d02t03.flac
    11:48.26      124952396 B   ---   --   ---xx   flac  0.5313  gr8fl2020-05-19d02t04.flac
     9:44.13      103048220 B   ---   --   ---xx   flac  0.5558  gr8fl2020-05-19d02t05.flac
     9:36.03      101613500 B   ---   --   ---xx   flac  0.5014  gr8fl2020-05-19d02t06.flac
     7:04.71       74960636 B   ---   --   ---xx   flac  0.4404  gr8fl2020-05-19d02t07.flac
   119:24.63     1263878392 B                            0.5198  (14 files)





More information about the bittorrent mailing list