[bittorrent] Frankly Scarlet Music On Main Lilburn, Georgia 5/17/2020 (Schoeps CCM4V'S FOB)

Automated Mailer noreply-bt.e at etree.org
Mon May 18 03:36:04 UTC 2020


Band:           Other
Torrent Name:   Frankly Scarlet Music On Main Lilburn, Georgia 5/17/2020 (Schoeps CCM4V'S FOB) 
Uploaded by:    zmanatl
DB Link:        
Details:        http://bt.etree.org/details.php?id=609708

Contact the seeder at http://db.etree.org/zmanatl

If the link to this show does not work, it was probably removed for
being non-trade-friendly.

Description / text file:
-------------------------
Frankly Scarlet
Music On Main
Lilburn, Georgia
5/17/2020

Source: Schoeps CCM4V'S>Lunatec V2>Sound Devices 722 (24/44.1)
FOB/DFC/KFC/ZFC/AARP 17' From Stage, 6 1/2' High
DSP: Sound Devices 722>Sound Forge 10.0>CD Wave>flac(16)
ID3 Tagged In Foobar 2000
Recorded By: Z-Man 
Seeded By: Z-Man
A Team Dirty South Recording

Disc I 1st Set

Soundcheck:
01 Goin' Down The Road Feelin' Bad
1st Set:
02 Jam >
03 On The Road Again 
04 Me And My Uncle >
05 *Jam >
06 Gonesville 
07 Alabama Getaway 
08 Bertha
09 Brown-Eyed Women 
10 China-Cat Sunflower >
11 I Know You Rider

Disc II 2nd Set 

01 Cold Rain And Snow 
02 Cassidy
03 St. Stephen >
04 The Eleven >
05 Space Jam >
06 Drum Solo >
07 Samson And Delilah >
08 Loose Lucy

Disc III 2nd Set Con't  

01 Ramble On Rose
02 New Speedway Boogie >
03 Truckin' >
04 The Other One >
05 Drum Solo >
06 Shakedown Street >
07 Also Sprach
08 Casey Jones

* With Mountain Jam Tease

Kurt Tompkins - Drums And Vocals
Cassidy Wall  Guitar And Vocals
Chris "Critter" Ricker - Guitar And Vocals
Jeremy "Jerbo" Foti - Bass 
Pete Ornstein - Keyboards And Vocals
Jose Rivera - Percussion

frankly2020-05-17d01t01.flac:6bc34a8476adf76066e22e15b74d4e31
frankly2020-05-17d01t02.flac:2ce48bb5731139e05565e5e9c21718af
frankly2020-05-17d01t03.flac:c2fff71d4383cb8195ed1ddbf29eeaf4
frankly2020-05-17d01t04.flac:fa18534c1d63db08d77de2868ae6718a
frankly2020-05-17d01t05.flac:79659957c66b1164c0b3d6622fce0177
frankly2020-05-17d01t06.flac:66b1adf933ce6b2f2aae2f7c9ee21670
frankly2020-05-17d01t07.flac:dabca6c84f7fd9856d2d3574bcecba2d
frankly2020-05-17d01t08.flac:6a7894fe8d95410bcb2c9900dd387f57
frankly2020-05-17d01t09.flac:2c9cf57677ae1dbe3d3aeb55e39c23c2
frankly2020-05-17d01t10.flac:018242508fe40c468cdda7412498b54d
frankly2020-05-17d01t11.flac:86487c58fea48d4c94f8c1fa613a2634
frankly2020-05-17d02t01.flac:944b3c8a8a046657126f43c7db32156e
frankly2020-05-17d02t02.flac:8ad5b32bd584f1c929b6fa90f86b8b99
frankly2020-05-17d02t03.flac:a4220238d006ed6715eb1297d73db1dd
frankly2020-05-17d02t04.flac:55cda296d8a2ddf20cf80d782324a320
frankly2020-05-17d02t05.flac:b5017c22c7403a760b5ac336c396b844
frankly2020-05-17d02t06.flac:5942f8b34dd873617305a5a51ebb4d9e
frankly2020-05-17d02t07.flac:49e7303477777d04e6c4e4347baf6443
frankly2020-05-17d02t08.flac:3bd185ac97c42052388c335bd9f24ff2
frankly2020-05-17d03t01.flac:f13fae4b94e221c5e697fea96f56fc9e
frankly2020-05-17d03t02.flac:314eb102fde5223ee7ccf1ec141585a0
frankly2020-05-17d03t03.flac:62023ddffde66fc32f4a422aae5738fa
frankly2020-05-17d03t04.flac:b80d404a321292e725e6970e9e5b94b1
frankly2020-05-17d03t05.flac:fbcda4538ca3293f7971643411bfa17b
frankly2020-05-17d03t06.flac:b79acad4c8807f1bb61c0268de02facb
frankly2020-05-17d03t07.flac:4d28f5ebadcd1b61a44a34db180b424a
frankly2020-05-17d03t08.flac:18e77fe9897bc061a21b81cf9994fbe1

length     expanded size    cdr  WAVE problems  fmt   ratio  filename
     5:59.60       63468764 B   ---   --   ---xx   flac  0.5218  frankly2020-05-17d01t01.flac
     3:02.48       32217740 B   ---   --   ---xx   flac  0.5013  frankly2020-05-17d01t02.flac
     3:51.60       40889564 B   ---   --   ---xx   flac  0.5531  frankly2020-05-17d01t03.flac
     4:10.45       44205884 B   ---   --   ---xx   flac  0.5994  frankly2020-05-17d01t04.flac
     2:44.46       29037836 B   ---   --   ---xx   flac  0.5551  frankly2020-05-17d01t05.flac
     4:19.64       45838172 B   ---   --   ---xx   flac  0.6067  frankly2020-05-17d01t06.flac
     5:32.21       58614236 B   ---   --   ---xx   flac  0.5303  frankly2020-05-17d01t07.flac
     8:01.64       84998972 B   ---   --   ---xx   flac  0.5903  frankly2020-05-17d01t08.flac
     8:06.18       85772780 B   ---   --   ---xx   flac  0.5724  frankly2020-05-17d01t09.flac
     9:24.02       99494348 B   ---   --   ---xx   flac  0.5768  frankly2020-05-17d01t10.flac
     7:09.24       75732092 B   ---   --   ---xx   flac  0.5765  frankly2020-05-17d01t11.flac
     9:45.48      103306940 B   ---   --   ---xx   flac  0.5197  frankly2020-05-17d02t01.flac
     9:09.16       96881276 B   ---   --   ---xx   flac  0.5331  frankly2020-05-17d02t02.flac
     7:17.35       77169164 B   ---   --   ---xx   flac  0.5911  frankly2020-05-17d02t03.flac
     6:55.57       73340108 B   ---   --   ---xx   flac  0.6298  frankly2020-05-17d02t04.flac
     2:28.00       26107244 B   ---   --   ---xx   flac  0.4822  frankly2020-05-17d02t05.flac
     3:05.54       32761052 B   ---   --   ---xx   flac  0.5590  frankly2020-05-17d02t06.flac
     8:07.41       86003276 B   ---   --   ---xx   flac  0.5890  frankly2020-05-17d02t07.flac
    10:45.48      113890940 B   ---   --   ---xx   flac  0.5553  frankly2020-05-17d02t08.flac
     7:05.72       75139388 B   ---   --   ---xx   flac  0.5131  frankly2020-05-17d03t01.flac
    11:57.71      126645836 B   ---   --   ---xx   flac  0.5044  frankly2020-05-17d03t02.flac
    13:21.10      141319964 B   ---   --   ---xx   flac  0.5500  frankly2020-05-17d03t03.flac
     6:53.02       72857948 B   ---   --   ---xx   flac  0.5587  frankly2020-05-17d03t04.flac
     2:59.43       31676780 B   ---   --   ---xx   flac  0.4827  frankly2020-05-17d03t05.flac
     8:48.07       93155708 B   ---   --   ---xx   flac  0.5961  frankly2020-05-17d03t06.flac
     5:59.65       63480524 B   ---   --   ---xx   flac  0.5420  frankly2020-05-17d03t07.flac
     6:16.58       66462860 B   ---   --   ---xx   flac  0.5577  frankly2020-05-17d03t08.flac
   183:20.29     1940469396 B                            0.5560  (27 files)





More information about the bittorrent mailing list