[bittorrent] Marc Sommers And Alan Dingus Acoustic Unplugged The Hunt House Marietta, Georgia 5/15/2020 (Schoeps CCM4V'S FOB)

Automated Mailer noreply-bt.e at etree.org
Sun May 17 02:48:03 UTC 2020


Band:           Other
Torrent Name:   Marc Sommers And Alan Dingus Acoustic Unplugged The Hunt House Marietta, Georgia 5/15/2020 (Schoeps CCM4V'S FOB)
Uploaded by:    zmanatl
DB Link:        
Details:        http://bt.etree.org/details.php?id=609684

Contact the seeder at http://db.etree.org/zmanatl

If the link to this show does not work, it was probably removed for
being non-trade-friendly.

Description / text file:
-------------------------
Marc Sommers And Alan Dingus Acoustic Unplugged
The Hunt House
Marietta, Georgia
5/15/2020

Source: Schoeps CCM4V'S>Lunatec V2>Sound Devices 722 (24/44.1)
FOB/DFC/KFC/ZFC/AARP 8' From Stage, 6 1/2' High
DSP: Sound Devices 722>Sound Forge 10.0>CD Wave>flac(16)
ID3 Tagged In Foobar 2000
Recorded By: Z-Man 
Seeded By: Z-Man
A Team Dirty South Recording

Disc I 1st Set

01 She Belongs To Me
02 Jack-A-Roe
03 Made It Back Home

Marc Sommers - Acoustic Guitar And Vocals
Alan Dingus - Acoustic Guitar And Vocals

marc2020-05-15d01t01.flac:05ff43a129297e85af6f7c8acfbcc2b3
marc2020-05-15d01t02.flac:0b1a3fc4f64ad2cc4662698ff4f0e158
marc2020-05-15d01t03.flac:32e157ced67e1faa8e04d2c57dab2d91

 length     expanded size    cdr  WAVE problems  fmt   ratio  filename
     5:25.04       57339452 B   ---   --   ---xx   flac  0.5317  marc2020-05-15d01t01.flac
     5:04.09       53646812 B   ---   --   ---xx   flac  0.5355  marc2020-05-15d01t02.flac
     4:29.61       47595116 B   ---   --   ---xx   flac  0.5088  marc2020-05-15d01t03.flac
    14:58.74      158581380 B                            0.5261  (3 files)




More information about the bittorrent mailing list