[bittorrent] gd1982-02-16.149912.aud.tompkins.flac1644

Automated Mailer noreply-bt.e at etree.org
Sat May 16 18:48:51 UTC 2020


Band:           Grateful Dead
Torrent Name:   gd1982-02-16.149912.aud.tompkins.flac1644
Uploaded by:    nfagdtrfb
DB Link:        
Details:        http://bt.etree.org/details.php?id=609679

Contact the seeder at http://db.etree.org/nfagdtrfb

If the link to this show does not work, it was probably removed for
being non-trade-friendly.

Description / text file:
-------------------------
GRATEFUL DEAD
Warfield Theatre
San Francisco CA
02-16-1982

s1t01 Shakedown Street >
s1t02 Greatest Story Ever Told
s1t03 Friend of the Devil >
s1t04 Little Red Rooster
s1t05 Peggy-O
s1t06 Me & My Uncle >
s1t07 Big River
s1t08 Althea
s1t09 Looks Like Rain
s1t10 Might as Well

s2t01 China Cat Sunflower >
s2t02 I Know You Rider >
s2t03 Playin in the Band >
s2t04 Terrapin >
s2t05 Drums/ (tape flip)
s2t06 Space >
s2t07 Truckin' >
s2t08 Black Peter >
s2t09 Playin' in the Band Reprise >
s2t10 Around & Around >
s2t11 Good Lovin'
s2t12 Encore: Don't Ease Me In

Source: Unknown mics > Sony TC-D5 > Maxell XLIIS 90's. Concert 
recording by Rip Tompkins, & with thanks to Richie Stankiewicz!

Transfer: MAC > Nakamichi CR-5A (Dolby-B in) > Edirol FA-66 > 
Wavelab 2448 > R8Brain SRC > CD-Wave > TLH > FLAC 1644 tagged. 
Transferred by Andrew F. 05/2020

Note: This one likely a master, not sure... ID-111364 patches 
Shakedown complete track, and Drums from 0:29 to end of track.

    length     expanded size    cdr  WAVE problems  fmt   ratio  filename
     9:54.02      104786348 B   ---   --   ---xx   flac  0.5871  gd1982-02-16s1t01.flac
     4:02.63       42837020 B   ---   --   ---xx   flac  0.5998  gd1982-02-16s1t02.flac
     8:49.34       93395612 B   ---   --   ---xx   flac  0.5694  gd1982-02-16s1t03.flac
     8:45.32       92685308 B   ---   --   ---xx   flac  0.5865  gd1982-02-16s1t04.flac
     6:58.33       73812860 B   ---   --   ---xx   flac  0.5359  gd1982-02-16s1t05.flac
     2:56.66       31201676 B   ---   --   ---xx   flac  0.5878  gd1982-02-16s1t06.flac
     5:48.39       61478972 B   ---   --   ---xx   flac  0.6034  gd1982-02-16s1t07.flac
     7:17.46       77195036 B   ---   --   ---xx   flac  0.5618  gd1982-02-16s1t08.flac
     8:11.07       86628908 B   ---   --   ---xx   flac  0.5420  gd1982-02-16s1t09.flac
     5:25.49       57445292 B   ---   --   ---xx   flac  0.5846  gd1982-02-16s1t10.flac
     6:57.18       73601180 B   ---   --   ---xx   flac  0.5696  gd1982-02-16s2t01.flac
     5:51.66       62071676 B   ---   --   ---xx   flac  0.5812  gd1982-02-16s2t02.flac
    12:05.74      128064092 B   ---   --   ---xx   flac  0.5491  gd1982-02-16s2t03.flac
    11:06.20      117529484 B   ---   --   ---xx   flac  0.5461  gd1982-02-16s2t04.flac
     8:44.03       92440700 B   ---   --   ---xx   flac  0.4624  gd1982-02-16s2t05.flac
     9:51.71      104419436 B   ---   --   ---xx   flac  0.4849  gd1982-02-16s2t06.flac
     8:13.54       87092252 B   ---   --   ---xx   flac  0.5936  gd1982-02-16s2t07.flac
     9:40.27      102375548 B   ---   --   ---xx   flac  0.5586  gd1982-02-16s2t08.flac
     4:08.42       43846028 B   ---   --   ---xx   flac  0.5857  gd1982-02-16s2t09.flac
     3:50.12       40600268 B   ---   --   ---xx   flac  0.6040  gd1982-02-16s2t10.flac
     7:32.66       79888076 B   ---   --   ---xx   flac  0.6175  gd1982-02-16s2t11.flac
     3:37.39       38370572 B   ---   --   ---xx   flac  0.5843  gd1982-02-16s2t12.flac
   159:50.38     1691766344 B                            0.5618  (22 files)

No errors occured.




More information about the bittorrent mailing list