[bittorrent] Magnolia Express The Hunt House Marietta, Georgia 5/15/2020 (Schoeps CCM4V'S FOB)

Automated Mailer noreply-bt.e at etree.org
Sat May 16 03:16:56 UTC 2020


Band:           Other
Torrent Name:   Magnolia Express The Hunt House Marietta, Georgia 5/15/2020 (Schoeps CCM4V'S FOB)
Uploaded by:    zmanatl
DB Link:        
Details:        http://bt.etree.org/details.php?id=609676

Contact the seeder at http://db.etree.org/zmanatl

If the link to this show does not work, it was probably removed for
being non-trade-friendly.

Description / text file:
-------------------------
Magnolia Express
The Hunt House
Marietta, Georgia
5/15/2020

Source: Source: Schoeps CCM4V'S>Lunatec V2>Sound Devices 722 (24/44.1)
FOB/DFC/KFC/ZFC/AARP 8' From Stage, 6 1/2' High
DSP: Sound Devices 722>Sound Forge 10.0>CD Wave>flac(16)
ID3 Tagged In Foobar 2000
Recorded By: Z-Man 
Seeded By: Z-Man
A Team Dirty South Recording

Disc I 1st Set

01 Greeting/Introduction By Z-Man
02 Salt Creek
03 Deep Elem Blues
04 Tequila Sunrise
05 Just My Lady And Me
06 *Friend Of The Devil >
07 *#Stormy Weather
08 Cardboard Box
09 Scotland
10 Panama Red 
11 Whiskey In The Jar
12 Willin'
13 Hold What You Got >
14 Turn On Your Lovelight

Disc II 2nd Set 

01 Greeting By Russell Brown
02 Mr. Spaceman
03 Glendale Train 
04 Dark Hollow
05 Sailor Song
06 Nellie Cain
07 Mama Raised Me Right, But I Went Left >
08 Big River

* With Marc Sommers On Acoustic Guitar And Vocals
# First Time Played

Russell Brown - Guitar And Vocals
Scott Balum - Bass
Jacques Dolan - Fiddle
Joe Kimsey - BanJo
Carrie Holley - Vocals

magnolia2020-05-15d01t01.flac:107d621633413e7a5e994243a73ec5ff
magnolia2020-05-15d01t02.flac:99c6b9b1609844ae7a4aedcc508726e8
magnolia2020-05-15d01t03.flac:73318f3b514582d31282b35b52f8f574
magnolia2020-05-15d01t04.flac:73af43cc3101a9979da508967eda7c5b
magnolia2020-05-15d01t05.flac:68bf825c3b99deb03d98204d51a6b6e9
magnolia2020-05-15d01t06.flac:d635a7d2ffb671f59218117583c98d1d
magnolia2020-05-15d01t07.flac:f3a46eedecec77c16d0906479ff43e6d
magnolia2020-05-15d01t08.flac:b54d7a69d54abcebe4594b95b8b30d2a
magnolia2020-05-15d01t09.flac:f5b1a24bf67f2df4e707deba991656d5
magnolia2020-05-15d01t10.flac:7773127a0d3a88e555a5ecbe84bade10
magnolia2020-05-15d01t11.flac:92e156abea003382e275d9e4adc1cfe4
magnolia2020-05-15d01t12.flac:5e0fccbb940fac85a0d40ef3ecbbb339
magnolia2020-05-15d01t13.flac:1b8363871e9bf010f426bc6e4d889879
magnolia2020-05-15d01t14.flac:a3e87874a5258af3d1ba9c3fd7dc1db7
magnolia2020-05-15d02t01.flac:d550871862f15fdf5d5c38a99629dfd6
magnolia2020-05-15d02t02.flac:1889f8ac7484d5c040cedeeeaad07fd0
magnolia2020-05-15d02t03.flac:32ccd7430f305fb04bade2185673997b
magnolia2020-05-15d02t04.flac:55c353280912e612722038b4ec3ee90e
magnolia2020-05-15d02t05.flac:c1e95f68dc56b29c3378a6ef3c631ff9
magnolia2020-05-15d02t06.flac:42e2b84877339b4cf9ea3f379485a7d3
magnolia2020-05-15d02t07.flac:f91aeb39e89d68424384e3dce762e1fd
magnolia2020-05-15d02t08.flac:6dc3a4937c0f294fa08cd568d3907b93

 length     expanded size    cdr  WAVE problems  fmt   ratio  filename
     1:39.08       17482460 B   ---   --   ---xx   flac  0.3726  magnolia2020-05-15d01t01.flac
     2:34.71       27332636 B   ---   --   ---xx   flac  0.4254  magnolia2020-05-15d01t02.flac
     4:24.63       46717820 B   ---   --   ---xx   flac  0.4166  magnolia2020-05-15d01t03.flac
     5:37.02       59451548 B   ---   --   ---xx   flac  0.4148  magnolia2020-05-15d01t04.flac
     3:48.35       40301564 B   ---   --   ---xx   flac  0.4317  magnolia2020-05-15d01t05.flac
     5:23.43       57078380 B   ---   --   ---xx   flac  0.4386  magnolia2020-05-15d01t06.flac
     6:28.68       68603180 B   ---   --   ---xx   flac  0.4031  magnolia2020-05-15d01t07.flac
     8:46.02       92791148 B   ---   --   ---xx   flac  0.4156  magnolia2020-05-15d01t08.flac
     3:24.19       36030332 B   ---   --   ---xx   flac  0.4134  magnolia2020-05-15d01t09.flac
     4:41.32       49643708 B   ---   --   ---xx   flac  0.4269  magnolia2020-05-15d01t10.flac
     5:05.34       53882012 B   ---   --   ---xx   flac  0.4257  magnolia2020-05-15d01t11.flac
     3:56.20       41677484 B   ---   --   ---xx   flac  0.3890  magnolia2020-05-15d01t12.flac
     3:00.45       31857884 B   ---   --   ---xx   flac  0.4352  magnolia2020-05-15d01t13.flac
     6:07.59       64877612 B   ---   --   ---xx   flac  0.4333  magnolia2020-05-15d01t14.flac
     0:41.21        7281836 B   ---   --   ---xx   flac  0.3764  magnolia2020-05-15d02t01.flac
     3:19.02       35108348 B   ---   --   ---xx   flac  0.4565  magnolia2020-05-15d02t02.flac
     5:19.19       56316332 B   ---   --   ---xx   flac  0.4492  magnolia2020-05-15d02t03.flac
     4:35.53       48634700 B   ---   --   ---xx   flac  0.4147  magnolia2020-05-15d02t04.flac
     6:53.43       72954380 B   ---   --   ---xx   flac  0.4048  magnolia2020-05-15d02t05.flac
     3:58.06       41997356 B   ---   --   ---xx   flac  0.4437  magnolia2020-05-15d02t06.flac
     3:10.12       33544268 B   ---   --   ---xx   flac  0.4690  magnolia2020-05-15d02t07.flac
     4:34.32       48408908 B   ---   --   ---xx   flac  0.4636  magnolia2020-05-15d02t08.flac
    97:30.14     1031973896 B                            0.4251  (22 files)






More information about the bittorrent mailing list