[bittorrent] gr8FL dude & frenz Diane Rabson's House Roswell, Georgia 5/14/2020 (Schoeps CCM4V'S FOB)

Automated Mailer noreply-bt.e at etree.org
Fri May 15 13:59:29 UTC 2020


Band:           Other
Torrent Name:   gr8FL dude & frenz  Diane Rabson's House  Roswell, Georgia 5/14/2020 (Schoeps CCM4V'S FOB)
Uploaded by:    zmanatl
DB Link:        
Details:        http://bt.etree.org/details.php?id=609672

Contact the seeder at http://db.etree.org/zmanatl

If the link to this show does not work, it was probably removed for
being non-trade-friendly.

Description / text file:
-------------------------
gr8FL dude & frenz 
Diane Rabson's House 
Roswell, Georgia
5/14/2020

Source: Source: Schoeps CCM4V'S>Lunatec V2>Sound Devices 722 (24/44.1)
FOB/DFC/KFC/ZFC/AARP 10' From Stage, 6 1/2' High
DSP: Sound Devices 722>Sound Forge 10.0>CD Wave>flac(16)
ID3 Tagged In Foobar 2000
Recorded By: Z-Man 
Seeded By: Z-Man
A Team Dirty South Recording

Disc I 1st Set

01 Ramble On Rose
02 Southern Bluesz
03 Jackero
04 Standin' On The Moon
05 Jet To The Promised Land
06 Nature Rules
07 *Eyes Of The World >
08 Free To Roam

Disc II 2nd Set 

01 He's Gone >
02 Steve-O
03 Steve-O 
04 Wharf Rat >
05 Deal
06 *Sugar Magnolia

* With Z-Man On Shaker Percussion 

Lewis Newmark - Guitar And Vocals
Malcom Fields - Bass And Vocals
Diane Rabson - Keyboards And Vocals
Ryan Marcus - Drums 
Mark Sandeen  - Drums

gr8fl2020-05-14d01t01.flac:42f4349ca2177e435ee986737af53a12
gr8fl2020-05-14d01t02.flac:6313c7c8b0ad829c3f4d4a7083b01033
gr8fl2020-05-14d01t03.flac:82a0d68f1c247bf963ef01afb9ec228e
gr8fl2020-05-14d01t04.flac:4914ea9d49191f46081604bda555e893
gr8fl2020-05-14d01t05.flac:09215c7010e003031abb650ad8c200b3
gr8fl2020-05-14d01t06.flac:aa74aa910b22c7c827b47e9470ffdc9f
gr8fl2020-05-14d01t07.flac:2c362535da18eb7adec8b9ee33fee7af
gr8fl2020-05-14d01t08.flac:20e75c8f70f99c3b03eadc441c149054
gr8fl2020-05-14d02t01.flac:12f1c7f2f3c3c7b738691aaf6e6eeb23
gr8fl2020-05-14d02t02.flac:ff5a8f3f7a78695845b239fa3fafe103
gr8fl2020-05-14d02t03.flac:6d3fc798001103f4d8706306686bf18b
gr8fl2020-05-14d02t04.flac:86ee35690ce1b0c3d1e5d9880e32640f
gr8fl2020-05-14d02t05.flac:80903985c31fe621bff5416d21f87cae
gr8fl2020-05-14d02t06.flac:46eb4674c71cc92734ee09cad8466e9c

 length     expanded size    cdr  WAVE problems  fmt   ratio  filename
     4:42.71       49911836 B   ---   --   ---xx   flac  0.5556  gr8fl2020-05-14d01t01.flac
     9:10.01       97022396 B   ---   --   ---xx   flac  0.5010  gr8fl2020-05-14d01t02.flac
     5:04.17       53665628 B   ---   --   ---xx   flac  0.5254  gr8fl2020-05-14d01t03.flac
     8:08.04       86092652 B   ---   --   ---xx   flac  0.5091  gr8fl2020-05-14d01t04.flac
     4:22.19       46261532 B   ---   --   ---xx   flac  0.6029  gr8fl2020-05-14d01t05.flac
     8:15.13       87348620 B   ---   --   ---xx   flac  0.5112  gr8fl2020-05-14d01t06.flac
     9:54.61      104925116 B   ---   --   ---xx   flac  0.5749  gr8fl2020-05-14d01t07.flac
     8:28.74       89785292 B   ---   --   ---xx   flac  0.6024  gr8fl2020-05-14d01t08.flac
     8:19.37       88110668 B   ---   --   ---xx   flac  0.5184  gr8fl2020-05-14d02t01.flac
     5:38.10       59646764 B   ---   --   ---xx   flac  0.5548  gr8fl2020-05-14d02t02.flac
     5:22.12       56829068 B   ---   --   ---xx   flac  0.5193  gr8fl2020-05-14d02t03.flac
    11:17.68      119582780 B   ---   --   ---xx   flac  0.5331  gr8fl2020-05-14d02t04.flac
     7:31.40       79650524 B   ---   --   ---xx   flac  0.5802  gr8fl2020-05-14d02t05.flac
    11:13.00      118717244 B   ---   --   ---xx   flac  0.5959  gr8fl2020-05-14d02t06.flac
   107:28.52     1137550120 B                            0.5488  (14 files)




More information about the bittorrent mailing list