[bittorrent] Z-Jerbo Jam John Foti's House Marietta, Georgia 5/11/2020 (Schoepd CCM4V'S FOB)

Automated Mailer noreply-bt.e at etree.org
Tue May 12 16:29:58 UTC 2020


Band:           Other
Torrent Name:   Z-Jerbo Jam  John Foti's House Marietta, Georgia 5/11/2020 (Schoepd CCM4V'S FOB)
Uploaded by:    zmanatl
DB Link:        
Details:        http://bt.etree.org/details.php?id=609654

Contact the seeder at http://db.etree.org/zmanatl

If the link to this show does not work, it was probably removed for
being non-trade-friendly.

Description / text file:
-------------------------
Z-Jerbo Jam 
John Foti's House
Marietta, Georgia
5/11/2020

Source: Sourc e: Schoeps CCM4V'S>Lunatec V2>Sound Devices 722 (24/44.1)
FOB/DFC/KFC/ZFC/AARP 8' From Stage, 6 1/2' High
DSP: Sound Devices 722>Sound Forge 10.0>CD Wave>flac(16)
ID3 Tagged In Foobar 2000
Recorded By: Z-Man 
Seeded By: Z-Man
A Team Dirty South Recording

Disc I 1st Set

01 Greeting/Introduction By Z-Man
02 Jam >
03 Betha 
04 Glendale Train 
05 Liberty >
06 Jam >
07 Not Fade Away >
08 Terrapin Station >
09 Morning Dew 
10 Panama Red

Disc II 2nd Set 

01 Intro By Z-Man
02 Scarlet Begonias >
03 Fire On The Mountain
04 Deal
05 Piece Of My Heart
06 Cortez The Killer

Disc III 3rd Set

01 Soulshine >
02 Whippin' Post >
03 Drum Solo >
04 Whippin' Post
05 Ain't Life Grand
06 Knockin' On Heaven's Door
07 Johnny B Goode

Cassidy Wall - Guitar And Vocals
Russell "RB" Grown - Guitar And Vocals
Jeremy "Jerbo" Foti - Bass
Diane Rabson - Keyboards And Vocals
Hayden Wall - Drums And Slide Flute

I put this "Band" together for a Jam Session. We are all friends and I have taped all of these guys over the years in Atlanta. 
Russell plays in Magnolia Express, Dian in Webster, Cassidy and Jerbo in Frankly Scarlet, and Hayden when he sits in 
with Frankly Scarlet. This is the 2nd week in a row we have gotten together to Jam. Tonight, I threw them a few curve balls 
with some song selections and they handled them great!

zjerbo2020-05-11d01t01.flac:5c320966686e34503662c95cd9eca772
zjerbo2020-05-11d01t02.flac:b483093456c8a5e50fef3b9f8f7c2c49
zjerbo2020-05-11d01t03.flac:71f0ad6ca73617fe01099cc0ce11db7a
zjerbo2020-05-11d01t04.flac:0f00d7e2c5b98429e2708411b32f04d6
zjerbo2020-05-11d01t05.flac:1bc41a0981f7872b81462a626d5c898a
zjerbo2020-05-11d01t06.flac:5d07e21a7d9473b2f43368536489b245
zjerbo2020-05-11d01t07.flac:69c3d6ce4f1fadc79365168b50492d2c
zjerbo2020-05-11d01t08.flac:72e59056b6544a84a95a14422f644649
zjerbo2020-05-11d01t09.flac:19b758e49227e29ea1cc786652843fd2
zjerbo2020-05-11d01t10.flac:63162d4203e8de3f2581689f428e2128
zjerbo2020-05-11d02t01.flac:8a00ebd8419d9c2c16a688219c733557
zjerbo2020-05-11d02t02.flac:cf4660177575010701f3b00e436ac429
zjerbo2020-05-11d02t03.flac:4f1f269b089e35bd8314ed4041f32131
zjerbo2020-05-11d02t04.flac:31ca61621d1fc2580d649b6ba1b82d21
zjerbo2020-05-11d02t05.flac:719cad263778daa9048305801f71712b
zjerbo2020-05-11d02t06.flac:2fbdc7e613a47c0ca3eb72efb024520c
zjerbo2020-05-11d03t01.flac:92e59ca5171efe50281c830202a13368
zjerbo2020-05-11d03t02.flac:7048b64b326a1e88973441e2180cda2f
zjerbo2020-05-11d03t03.flac:e0ca45b4f8d57b6eed32ccab4bd27001
zjerbo2020-05-11d03t04.flac:7473465a63f391778596d655f10429e8
zjerbo2020-05-11d03t05.flac:7a5ea9b23416ddfe721f9c72c8f34ff4
zjerbo2020-05-11d03t06.flac:91a4b76f1bc26625c2408cb6e9ad22ca
zjerbo2020-05-11d03t07.flac:d6cb9af28c0983944f0244cfa198c05e

 length     expanded size    cdr  WAVE problems  fmt   ratio  filename
     0:53.41        9445676 B   ---   --   ---xx   flac  0.3766  zjerbo2020-05-11d01t01.flac
     0:59.43       10508780 B   ---   --   ---xx   flac  0.3904  zjerbo2020-05-11d01t02.flac
     8:52.28       93910700 B   ---   --   ---xx   flac  0.5857  zjerbo2020-05-11d01t03.flac
     6:01.10       63703964 B   ---   --   ---xx   flac  0.5618  zjerbo2020-05-11d01t04.flac
     6:31.41       69068876 B   ---   --   ---xx   flac  0.5708  zjerbo2020-05-11d01t05.flac
     3:41.34       39064412 B   ---   --   ---xx   flac  0.5279  zjerbo2020-05-11d01t06.flac
    13:20.08      141138860 B   ---   --   ---xx   flac  0.5271  zjerbo2020-05-11d01t07.flac
    13:59.25      148058444 B   ---   --   ---xx   flac  0.5239  zjerbo2020-05-11d01t08.flac
    13:54.27      147181148 B   ---   --   ---xx   flac  0.5015  zjerbo2020-05-11d01t09.flac
     4:22.20       46263884 B   ---   --   ---xx   flac  0.5343  zjerbo2020-05-11d01t10.flac
     0:47.63        8439020 B   ---   --   ---xx   flac  0.3282  zjerbo2020-05-11d02t01.flac
    12:48.71      135642236 B   ---   --   ---xx   flac  0.5541  zjerbo2020-05-11d02t02.flac
     9:17.30       98325404 B   ---   --   ---xx   flac  0.5351  zjerbo2020-05-11d02t03.flac
     8:54.47       94308188 B   ---   --   ---xx   flac  0.5719  zjerbo2020-05-11d02t04.flac
     7:26.35       78756764 B   ---   --   ---xx   flac  0.5629  zjerbo2020-05-11d02t05.flac
     9:42.68      102824780 B   ---   --   ---xx   flac  0.4883  zjerbo2020-05-11d02t06.flac
     6:29.71       68786636 B   ---   --   ---xx   flac  0.5569  zjerbo2020-05-11d03t01.flac
    10:12.29      108025052 B   ---   --   ---xx   flac  0.6031  zjerbo2020-05-11d03t02.flac
     1:14.30       13124204 B   ---   --   ---xx   flac  0.5258  zjerbo2020-05-11d03t03.flac
     3:24.67       36143228 B   ---   --   ---xx   flac  0.5578  zjerbo2020-05-11d03t04.flac
     4:41.56       49700156 B   ---   --   ---xx   flac  0.5618  zjerbo2020-05-11d03t05.flac
     9:26.09       99863612 B   ---   --   ---xx   flac  0.4825  zjerbo2020-05-11d03t06.flac
     6:58.23       73789340 B   ---   --   ---xx   flac  0.6211  zjerbo2020-05-11d03t07.flac
   164:01.51     1736073364 B                            0.5417  (23 files)

 



More information about the bittorrent mailing list