[bittorrent] gd1987-07-10.149828.UltraMatrix.sbd.cm.miller.flac24

Automated Mailer noreply-bt.e at etree.org
Sun May 10 11:58:54 UTC 2020


Band:           Grateful Dead
Torrent Name:   gd1987-07-10.149828.UltraMatrix.sbd.cm.miller.flac24
Uploaded by:    norm
DB Link:        
Details:        http://bt.etree.org/details.php?id=609640

Contact the seeder at http://db.etree.org/norm

If the link to this show does not work, it was probably removed for
being non-trade-friendly.

Description / text file:
-------------------------
Grateful Dead - July 10, 1987
JFK Stadium - Philadelphia, PA

Recording Info:
UltraMatrix SBD > Cassette Master (TDK MA-R90)

Transfer Info:
Cassette Master (Nakamichi CR-7A) > Tascam DA-3000 (DSF 1-bit/5.6MHz) >
dBpoweramp > Adobe Audition CC 2015 > Samplitude Pro X4 Suite > FLAC/24
(1 DVD FLAC)

All Transfers and Mastering By Charlie Miller
charliemiller87 at earthlink.net
May 6, 2020

Notes:
-- Recorded by Don Pearson and Dan Healy
-- Multiple sets of masters were used to make this show complete
-- Set 2 is The Grateful Dead with Bob Dylan

Set 1:
01 - Tuning
02 - Iko Iko
03 - Jack Straw
04 - Sugaree
05 - New Minglewood Blues
06 - Althea
07 - My Brother Esau
08 - Take A Step Back / Mexican Hat Dance Tuning
09 - When Push Comes To Shove
10 - Cassidy
11 - China Cat Sunflower >
12 - I Know You Rider
13 - Looks Like Rain >
14 - Terrapin Station >
15 - Drums >
16 - Space >
17 - I Need A Miracle >
18 - Black Peter >
19 - Around And Around >
20 - One More Saturday Night

Set 2:
21 - Tangled Up In Blue
22 - I'll Be Your Baby Tonight
23 - Man Of Peace
24 - The Ballad Of Frankie Lee And Judas Priest
25 - John Brown
26 - Simple Twist Of Fate
27 - Ballad Of A Thin Man
28 - Stuck Inside Of Mobile With The Memphis Blues Again
29 - Chimes Of Freedom
30 - Queen Jane Approximately
31 - Gotta Serve Somebody
32 - Joey
33 - All Along The Watchtower

Encore:
34 - Encore Break
35 - Touch Of Grey


SHNTOOL OUTPUT:
    length     expanded size    cdr  WAVE problems  fmt   ratio  filename
     0:51.671      29762426 B   cxx   --   ---xx   flac  0.5933  01 Tuning.flac
     7:44.268     267418298 B   cxx   --   ---xx   flac  0.6255  02 Iko Iko.flac
     6:28.099     223544864 B   cxx   --   ---xx   flac  0.6238  03 Jack Straw.flac
     8:30.311     293939234 B   cxx   --   ---xx   flac  0.6296  04 Sugaree.flac
     8:44.076     301867844 B   cxx   --   ---xx   flac  0.6213  05 New Minglewood Blues.flac
     7:21.016     254025344 B   cxx   --   ---xx   flac  0.6242  06 Althea.flac
     4:59.913     172750118 B   cxx   --   ---xx   flac  0.6312  07 My Brother Esau.flac
     1:34.997      54718154 B   cxx   --   ---xx   flac  0.5839  08 Take A Step Back _ Mexican Hat Dance Tuning.flac
     6:07.274     211550102 B   cxx   --   ---xx   flac  0.6226  09 When Push Comes To Shove.flac
     8:03.616     278562656 B   cxx   --   ---xx   flac  0.6251  10 Cassidy.flac
     5:31.400     190886336 B   cxx   --   ---xx   flac  0.6389  11 China Cat Sunflower.flac
     6:20.179     218983400 B   cxx   --   ---xx   flac  0.6295  12 I Know You Rider.flac
     8:28.100     292665728 B   cxx   --   ---xx   flac  0.6215  13 Looks Like Rain.flac
    10:50.661     374780972 B   cxx   --   ---xx   flac  0.6905  14 Terrapin Station.flac
     9:33.975     330609734 B   cxx   --   ---xx   flac  0.6675  15 Drums.flac
     4:12.814     145620626 B   cxx   --   ---xx   flac  0.6723  16 Space.flac
     5:27.535     188660312 B   cxx   --   ---xx   flac  0.6999  17 I Need A Miracle.flac
     7:53.456     272710814 B   cxx   --   ---xx   flac  0.6994  18 Black Peter.flac
     4:20.188     149868044 B   cxx   --   ---xx   flac  0.6956  19 Around And Around.flac
     5:04.573     175434242 B   cxx   --   ---xx   flac  0.6952  20 One More Saturday Night.flac
     5:32.991     191802776 B   cxx   --   ---xx   flac  0.6945  21 Tangled Up In Blue.flac
     5:12.808     180177632 B   cxx   --   ---xx   flac  0.6946  22 I'll Be Your Baby Tonight.flac
     4:52.948     168738134 B   cxx   --   ---xx   flac  0.6985  23 Man Of Peace.flac
     5:21.264     185048102 B   cxx   --   ---xx   flac  0.7091  24 The Ballad Of Frankie Lee And Judas Priest.flac
     6:17.249     217295234 B   cxx   --   ---xx   flac  0.7033  25 John Brown.flac
     6:02.914     209038298 B   cxx   --   ---xx   flac  0.7059  26 Simple Twist Of Fate.flac
     5:27.745     188781332 B   cxx   --   ---xx   flac  0.7050  27 Ballad Of A Thin Man.flac
     6:54.742     238891376 B   cxx   --   ---xx   flac  0.7077  28 Stuck Inside Of Mobile With The Memphis Blues Again.flac
     5:57.989     206201534 B   cxx   --   ---xx   flac  0.7230  29 Chimes Of Freedom.flac
     1:08.219      39294242 B   cxx   --   ---xx   flac  0.6915  30 Queen Jane Approximately.flac
     4:23.069     151527632 B   cxx   --   ---xx   flac  0.7123  31 Gotta Serve Somebody.flac
     9:39.979     334067882 B   cxx   --   ---xx   flac  0.7052  32 Joey.flac
     4:49.898     166981514 B   cxx   --   ---xx   flac  0.7127  33 All Along The Watchtower.flac
     2:45.884      95549372 B   cxx   --   ---xx   flac  0.6837  34 Encore Break.flac
     8:19.615     287778266 B   cxx   --   ---xx   flac  0.7124  35 Touch Of Grey.flac
   210:55.436    7289532574 B                            0.6708  (35 files)



More information about the bittorrent mailing list