[bittorrent] gd1991-09-13.149851.sbd.cm.miller.flac16

Automated Mailer noreply-bt.e at etree.org
Sun May 10 11:20:29 UTC 2020


Band:           Grateful Dead
Torrent Name:   gd1991-09-13.149851.sbd.cm.miller.flac16
Uploaded by:    norm
DB Link:        
Details:        http://bt.etree.org/details.php?id=609639

Contact the seeder at http://db.etree.org/norm

If the link to this show does not work, it was probably removed for
being non-trade-friendly.

Description / text file:
-------------------------
Grateful Dead - September 13, 1991
Madison Square Garden - New York, NY

Recording Info:
SBD > Cassette Master (TDK SA-X100)

Transfer Info:
Cassette Master (Nakamichi CR-7A) > Tascam DA-3000 (DSF 1-bit/5.6MHz) >
dBpoweramp > Samplitude Pro X4 Suite > FLAC/24
(1 DVD FLAC)

All Transfers and Mastering By Charlie Miller
charliemiller87 at earthlink.net
May 3, 2020

Notes:
-- Recorded by Don Pearson and Dan Healy
-- Multiple sets of masters were used to make this show complete
-- This file set is 16 bit @ 44.1

Set 1:
01 - Tuning
02 - Touch Of Grey >
03 - Wang Dang Doodle
04 - Peggy-O
05 - Big River >
06 - Cumberland Blues
07 - Althea >
08 - When I Paint My Masterpiece
09 - Bird Song

Set 2:
10 - Tuning
11 - Victim Or The Crime >
12 - Scarlet Begonias >
13 - Fire On The Mountain >
14 - Drums >
15 - Space >
16 - The Other One >
17 - Stella Blue >
18 - Throwing Stones >
19 - Not Fade Away

Encore:
20 - Encore Break
21 - Knockin' On Heaven's Door


SHNTOOL OUTPUT:
    length     expanded size    cdr  WAVE problems  fmt   ratio  filename
     3:21.57       35590508 B   ---   --   ---xx   flac  0.4476  01 Tuning.flac
     6:36.34       69934412 B   ---   --   ---xx   flac  0.6321  02 Touch Of Grey.flac
    10:02.10      106216364 B   ---   --   ---xx   flac  0.5851  03 Wang Dang Doodle.flac
     6:49.25       72206444 B   ---   --   ---xx   flac  0.5753  04 Peggy-O.flac
     5:43.21       60554636 B   ---   --   ---xx   flac  0.6274  05 Big River.flac
     6:32.43       69249980 B   ---   --   ---xx   flac  0.5833  06 Cumberland Blues.flac
     7:39.55       81097004 B   ---   --   ---xx   flac  0.6075  07 Althea.flac
     6:59.41       74008076 B   ---   --   ---xx   flac  0.5576  08 When I Paint My Masterpiece.flac
    13:58.24      147879692 B   ---   --   ---xx   flac  0.6028  09 Bird Song.flac
     0:59.63       10555820 B   ---   --   ---xx   flac  0.3610  10 Tuning.flac
     8:18.22       87898988 B   ---   --   ---xx   flac  0.5954  11 Victim Or The Crime.flac
    10:24.23      110127740 B   ---   --   ---xx   flac  0.6198  12 Scarlet Begonias.flac
    13:49.63      146383820 B   ---   --   ---xx   flac  0.6093  13 Fire On The Mountain.flac
    11:00.59      116562812 B   ---   --   ---xx   flac  0.5140  14 Drums.flac
    11:02.59      116915612 B   ---   --   ---xx   flac  0.4564  15 Space.flac
    10:30.35      111214364 B   ---   --   ---xx   flac  0.5631  16 The Other One.flac
     9:53.40      104699324 B   ---   --   ---xx   flac  0.5502  17 Stella Blue.flac
     8:33.51       90613196 B   ---   --   ---xx   flac  0.6011  18 Throwing Stones.flac
     9:25.11       99691916 B   ---   --   ---xx   flac  0.5859  19 Not Fade Away.flac
     2:23.64       25375772 B   ---   --   ---xx   flac  0.3512  20 Encore Break.flac
     9:28.61      100338716 B   ---   --   ---xx   flac  0.5537  21 Knockin' On Heaven's Door.flac
   173:34.36     1837115196 B                            0.5695  (21 files)



More information about the bittorrent mailing list