[bittorrent] Webster Steady Hand Beer Co. Atlanta, Georgia 5/9/2020 (Schoeps CCM4V'S FOB)

Automated Mailer noreply-bt.e at etree.org
Sun May 10 02:29:13 UTC 2020


Band:           Other
Torrent Name:   Webster Steady Hand Beer Co. Atlanta, Georgia 5/9/2020 (Schoeps CCM4V'S FOB)
Uploaded by:    zmanatl
DB Link:        
Details:        http://bt.etree.org/details.php?id=609636

Contact the seeder at http://db.etree.org/zmanatl

If the link to this show does not work, it was probably removed for
being non-trade-friendly.

Description / text file:
-------------------------
Webster
Steady Hand Beer Co.
Atlanta, Georgia
5/9/2020

Source: Source: Schoeps CCM4V'S>Lunatec V2>Sound Devices 722 (24/44.1)
FOB/DFC/KFC/ZFC/AARP 10' From Stage, 6 1/2' High
DSP: Sound Devices 722>Sound Forge 10.0>CD Wave>flac(16)
ID3 Tagged In Foobar 2000
Recorded By: Z-Man 
Seeded By: Z-Man
A Team Dirty South Recording

Disc I 1st Set

01 Jam >
02 Crash On The Levee >
03 Mama Tried
04 Greeting/Introduction By Z-Man
05 Just Another Tequila Sunrise
06 Feelin' Alright 
07 Dire Wolf 
08 Dead Flowers
09 Jackero
10 You Ain't Goin' Nowhere 
11 Feel Like A Stranger
12 Franklin's Tower

Disc II 2nd Set 

01 Here Comes Sunshine 
02 Uncle John's Band 
03 And It Stoned Me 
04 Althea 
05 Dancin' In The Street

Disc III 2nd Set Con't 

01 Black Peter >
02 Goin' Down The Road Feelin' Bad >
03 Cold Rain And Snow 
04 Sisters And Brothers >
05 Deal >
06 It's All Over Now, Baby Blue
Encore:
07 Tore Up

Byron Alterman- Guitar And Vocals
Bill Chandler   - Guitar And Vocals
Roger Krystopos - Bass
Diane Rabson - Keyboards And Vocals
Jay Smith - Drums 

webster2020-05-09d01t01.flac:0c1e20b1499449786072c0a54176c854
webster2020-05-09d01t02.flac:a16a01ff81fbf2a103eccccd5223f73f
webster2020-05-09d01t03.flac:33ef17bff1d3fd877740a76e33960246
webster2020-05-09d01t04.flac:928eadbd3f827b980c29993558d74792
webster2020-05-09d01t05.flac:0ba7a44026c947e4e41fd92c8359490e
webster2020-05-09d01t06.flac:cc45048fc9e16568b0aa6eeb698df66a
webster2020-05-09d01t07.flac:c1c54a6f049a4889746776f16e1753ae
webster2020-05-09d01t08.flac:2fcfa16c12593e6ba921876871a8b27f
webster2020-05-09d01t09.flac:95853554b266ee13521ac14a06dd6fde
webster2020-05-09d01t10.flac:ad7ab6a52d51ff4a316b8994678218fc
webster2020-05-09d01t11.flac:ca941bfa98ac3654340e6bf48d35f34c
webster2020-05-09d01t12.flac:a57ad4ca018d4188431dbc1e42feb8bd
webster2020-05-09d02t01.flac:f117a36f17e73ea167824ee63f8d4f8f
webster2020-05-09d02t02.flac:dbdc963c46ab98a6a6fccead641169c4
webster2020-05-09d02t03.flac:60d690a028a0318dfa0c7d3f2156c294
webster2020-05-09d02t04.flac:b56c7fee1ddd475da5840475d79014ce
webster2020-05-09d02t05.flac:2bef47d812b4d2e60092db2766133b3f
webster2020-05-09d03t01.flac:d7d9ae95c945116f4ed3e9ac800dbaaf
webster2020-05-09d03t02.flac:54a94bf6fdd2104c3f6e183bb233ef4e
webster2020-05-09d03t03.flac:0f448f019a491471d1ee681f6ff18b2d
webster2020-05-09d03t04.flac:76e7885f71b9eb39fd2efc8e84680c04
webster2020-05-09d03t05.flac:92165f86740252e6b2d200323d0f11dc
webster2020-05-09d03t06.flac:1683d2e96baa95519e8f1bf1a0f48ff7
webster2020-05-09d03t07.flac:28d44f9b9bb8c249e53e651ec2276215

length     expanded size    cdr  WAVE problems  fmt   ratio  filename
     0:43.19        7629932 B   ---   --   ---xx   flac  0.3856  webster2020-05-09d01t01.flac
     5:16.15       55777724 B   ---   --   ---xx   flac  0.5490  webster2020-05-09d01t02.flac
     3:43.51       39457196 B   ---   --   ---xx   flac  0.5047  webster2020-05-09d01t03.flac
     1:32.09       16250012 B   ---   --   ---xx   flac  0.3808  webster2020-05-09d01t04.flac
     4:28.02       47279948 B   ---   --   ---xx   flac  0.3846  webster2020-05-09d01t05.flac
     7:50.55       83037404 B   ---   --   ---xx   flac  0.5118  webster2020-05-09d01t06.flac
     3:41.09       39005612 B   ---   --   ---xx   flac  0.4835  webster2020-05-09d01t07.flac
     7:51.66       83239676 B   ---   --   ---xx   flac  0.4839  webster2020-05-09d01t08.flac
     5:47.28       61276700 B   ---   --   ---xx   flac  0.4049  webster2020-05-09d01t09.flac
     5:51.17       61956428 B   ---   --   ---xx   flac  0.4284  webster2020-05-09d01t10.flac
     7:21.29       77860652 B   ---   --   ---xx   flac  0.5743  webster2020-05-09d01t11.flac
     8:36.05       91034204 B   ---   --   ---xx   flac  0.5538  webster2020-05-09d01t12.flac
     9:00.47       95366588 B   ---   --   ---xx   flac  0.5179  webster2020-05-09d02t01.flac
     9:24.46       99597836 B   ---   --   ---xx   flac  0.5302  webster2020-05-09d02t02.flac
     6:42.18       70955180 B   ---   --   ---xx   flac  0.4626  webster2020-05-09d02t03.flac
     8:35.37       90933068 B   ---   --   ---xx   flac  0.4532  webster2020-05-09d02t04.flac
     7:27.25       78909644 B   ---   --   ---xx   flac  0.5720  webster2020-05-09d02t05.flac
     9:28.46      100303436 B   ---   --   ---xx   flac  0.4995  webster2020-05-09d03t01.flac
     6:30.66       68951276 B   ---   --   ---xx   flac  0.5364  webster2020-05-09d03t02.flac
     7:55.00       83790044 B   ---   --   ---xx   flac  0.4978  webster2020-05-09d03t03.flac
     5:47.32       61286108 B   ---   --   ---xx   flac  0.4694  webster2020-05-09d03t04.flac
     6:47.65       71947724 B   ---   --   ---xx   flac  0.5387  webster2020-05-09d03t05.flac
     8:34.03       90676700 B   ---   --   ---xx   flac  0.4430  webster2020-05-09d03t06.flac
     5:45.22       60909788 B   ---   --   ---xx   flac  0.5231  webster2020-05-09d03t07.flac
   154:42.37     1637432880 B                            0.4982  (24 files)





More information about the bittorrent mailing list