[bittorrent] gd1991-09-13.149790.sbd.cm.miller.flac24

Automated Mailer noreply-bt.e at etree.org
Sun May 10 02:00:42 UTC 2020


Band:           Grateful Dead
Torrent Name:   gd1991-09-13.149790.sbd.cm.miller.flac24
Uploaded by:    norm
DB Link:        
Details:        http://bt.etree.org/details.php?id=609634

Contact the seeder at http://db.etree.org/norm

If the link to this show does not work, it was probably removed for
being non-trade-friendly.

Description / text file:
-------------------------
Grateful Dead - September 13, 1991
Madison Square Garden - New York, NY

Recording Info:
SBD > Cassette Master (TDK SA-X100)

Transfer Info:
Cassette Master (Nakamichi CR-7A) > Tascam DA-3000 (DSF 1-bit/5.6MHz) >
dBpoweramp > Samplitude Pro X4 Suite > FLAC/24
(1 DVD FLAC)

All Transfers and Mastering By Charlie Miller
charliemiller87 at earthlink.net
May 3, 2020

Notes:
-- Recorded by Don Pearson and Dan Healy
-- Multiple sets of masters were used to make this show complete

Set 1:
01 - Tuning
02 - Touch Of Grey >
03 - Wang Dang Doodle
04 - Peggy-O
05 - Big River >
06 - Cumberland Blues
07 - Althea >
08 - When I Paint My Masterpiece
09 - Bird Song

Set 2:
10 - Tuning
11 - Victim Or The Crime >
12 - Scarlet Begonias >
13 - Fire On The Mountain >
14 - Drums >
15 - Space >
16 - The Other One >
17 - Stella Blue >
18 - Throwing Stones >
19 - Not Fade Away

Encore:
20 - Encore Break
21 - Knockin' On Heaven's Door


SHNTOOL OUTPUT:
    length     expanded size    cdr  WAVE problems  fmt   ratio  filename
     3:21.760     116214050 B   cxx   --   ---xx   flac  0.5115  01 Tuning.flac
     6:36.457     228359378 B   cxx   --   ---xx   flac  0.6664  02 Touch Of Grey.flac
    10:02.142     346833764 B   cxx   --   ---xx   flac  0.6556  03 Wang Dang Doodle.flac
     6:49.322     235769576 B   cxx   --   ---xx   flac  0.6541  04 Peggy-O.flac
     5:43.292     197736056 B   cxx   --   ---xx   flac  0.6685  05 Big River.flac
     6:32.573     226122170 B   cxx   --   ---xx   flac  0.6541  06 Cumberland Blues.flac
     7:39.731     264805172 B   cxx   --   ---xx   flac  0.6607  07 Althea.flac
     6:59.546     241658630 B   cxx   --   ---xx   flac  0.6416  08 When I Paint My Masterpiece.flac
    13:58.321     482873066 B   cxx   --   ---xx   flac  0.6565  09 Bird Song.flac
     0:59.839      34467218 B   cxx   --   ---xx   flac  0.4587  10 Tuning.flac
     8:18.283     287011226 B   cxx   --   ---xx   flac  0.6515  11 Victim Or The Crime.flac
    10:24.318     359607392 B   cxx   --   ---xx   flac  0.6629  12 Scarlet Begonias.flac
    13:49.835     477985256 B   cxx   --   ---xx   flac  0.6581  13 Fire On The Mountain.flac
    11:00.787     380613086 B   cxx   --   ---xx   flac  0.6257  14 Drums.flac
    11:02.792     381768344 B   cxx   --   ---xx   flac  0.6043  15 Space.flac
    10:30.459     363144476 B   cxx   --   ---xx   flac  0.6411  16 The Other One.flac
     9:53.533     341874806 B   cxx   --   ---xx   flac  0.6386  17 Stella Blue.flac
     8:33.682     295880906 B   cxx   --   ---xx   flac  0.6526  18 Throwing Stones.flac
     9:25.152     325527812 B   cxx   --   ---xx   flac  0.6466  19 Not Fade Away.flac
     2:23.846      82855562 B   cxx   --   ---xx   flac  0.4150  20 Encore Break.flac
     9:28.799     327628004 B   cxx   --   ---xx   flac  0.6425  21 Knockin' On Heaven's Door.flac
   173:34.471    5998735950 B                            0.6409  (21 files)



More information about the bittorrent mailing list