[bittorrent] gd1991-09-12.149847.sbd.cm.miller.flac16

Automated Mailer noreply-bt.e at etree.org
Sun May 10 01:34:08 UTC 2020


Band:           Grateful Dead
Torrent Name:   gd1991-09-12.149847.sbd.cm.miller.flac16
Uploaded by:    norm
DB Link:        
Details:        http://bt.etree.org/details.php?id=609633

Contact the seeder at http://db.etree.org/norm

If the link to this show does not work, it was probably removed for
being non-trade-friendly.

Description / text file:
-------------------------
Grateful Dead - September 12, 1991
Madison Square Garden - New York, NY

Recording Info:
SBD > Cassette Master (TDK SA-X100)

Transfer Info:
Cassette Master (Nakamichi CR-7A) > Tascam DA-3000 (DSF 1-bit/5.6MHz) >
dBpoweramp > Samplitude Pro X4 Suite > FLAC/24
(1 DVD FLAC)

All Transfers and Mastering By Charlie Miller
charliemiller87 at earthlink.net
May 2, 2020

Notes:
-- Recorded by Don Pearson and Dan Healy
-- Multiple sets of masters were used to make this show complete
-- This file set is 16 bit @ 44.1

Set 1:
01 - Tuning
02 - Hell In A Bucket
03 - Bertha
04 - Walkin' Blues
05 - Ramble On Rose
06 - Beat It On Down The Line >
07 - Big Railroad Blues
08 - Just Like Tom Thumb's Blues
09 - Let It Grow

Set 2:
10 - Tuning
11 - Sugar Magnolia >
12 - Foolish Heart >
13 - Playing In The Band >
14 - Terrapin Station >
15 - Playing In The Band Jam >
16 - Drums >
17 - Space >
18 - The Wheel >
19 - Black Peter >
20 - Around And Around >
21 - Sunshine Daydream

Encore:
22 - Encore Break
23 - Box Of Rain


SHNTOOL OUTPUT:
    length     expanded size    cdr  WAVE problems  fmt   ratio  filename
     1:04.48       11402540 B   ---   --   ---xx   flac  0.4235  01 Tuning.flac
     6:28.24       68499692 B   ---   --   ---xx   flac  0.6556  02 Hell In A Bucket.flac
     7:26.19       78719132 B   ---   --   ---xx   flac  0.6572  03 Bertha.flac
     7:32.30       79803404 B   ---   --   ---xx   flac  0.5889  04 Walkin' Blues.flac
    11:04.02      117134348 B   ---   --   ---xx   flac  0.5894  05 Ramble On Rose.flac
     3:17.06       34764956 B   ---   --   ---xx   flac  0.6662  06 Beat It On Down The Line.flac
     8:05.22       85605788 B   ---   --   ---xx   flac  0.5986  07 Big Railroad Blues.flac
     8:03.20       85248284 B   ---   --   ---xx   flac  0.5438  08 Just Like Tom Thumb's Blues.flac
    13:59.32      148074908 B   ---   --   ---xx   flac  0.6329  09 Let It Grow.flac
     3:00.09       31773212 B   ---   --   ---xx   flac  0.4430  10 Tuning.flac
     2:51.30       30235004 B   ---   --   ---xx   flac  0.6594  11 Sugar Magnolia.flac
    12:59.46      137523836 B   ---   --   ---xx   flac  0.6398  12 Foolish Heart.flac
     8:47.60       93103964 B   ---   --   ---xx   flac  0.6122  13 Playing In The Band.flac
    12:17.42      130105628 B   ---   --   ---xx   flac  0.6165  14 Terrapin Station.flac
     3:12.06       33882956 B   ---   --   ---xx   flac  0.5675  15 Playing In The Band Jam.flac
    10:27.40      110696924 B   ---   --   ---xx   flac  0.5120  16 Drums.flac
     8:26.33       89336060 B   ---   --   ---xx   flac  0.5022  17 Space.flac
     4:45.44       50377532 B   ---   --   ---xx   flac  0.6262  18 The Wheel.flac
     9:18.14       98464172 B   ---   --   ---xx   flac  0.5913  19 Black Peter.flac
     3:45.38       39779420 B   ---   --   ---xx   flac  0.6434  20 Around And Around.flac
     6:27.74       68440892 B   ---   --   ---xx   flac  0.6303  21 Sunshine Daydream.flac
     1:30.68       16035980 B   ---   --   ---xx   flac  0.4324  22 Encore Break.flac
     5:08.71       54498236 B   ---   --   ---xx   flac  0.6110  23 Box Of Rain.flac
   160:00.28     1693506868 B                            0.5968  (23 files)



More information about the bittorrent mailing list