[bittorrent] gd1991-09-12.149784.sbd.cm.miller.flac24

Automated Mailer noreply-bt.e at etree.org
Sat May 9 19:27:25 UTC 2020


Band:           Grateful Dead
Torrent Name:   gd1991-09-12.149784.sbd.cm.miller.flac24
Uploaded by:    norm
DB Link:        
Details:        http://bt.etree.org/details.php?id=609621

Contact the seeder at http://db.etree.org/norm

If the link to this show does not work, it was probably removed for
being non-trade-friendly.

Description / text file:
-------------------------
Grateful Dead - September 12, 1991
Madison Square Garden - New York, NY

Recording Info:
SBD > Cassette Master (TDK SA-X100)

Transfer Info:
Cassette Master (Nakamichi CR-7A) > Tascam DA-3000 (DSF 1-bit/5.6MHz) >
dBpoweramp > Samplitude Pro X4 Suite > FLAC/24
(1 DVD FLAC)

All Transfers and Mastering By Charlie Miller
charliemiller87 at earthlink.net
May 2, 2020

Notes:
-- Recorded by Don Pearson and Dan Healy
-- Multiple sets of masters were used to make this show complete

Set 1:
01 - Tuning
02 - Hell In A Bucket
03 - Bertha
04 - Walkin' Blues
05 - Ramble On Rose
06 - Beat It On Down The Line >
07 - Big Railroad Blues
08 - Just Like Tom Thumb's Blues
09 - Let It Grow

Set 2:
10 - Tuning
11 - Sugar Magnolia >
12 - Foolish Heart >
13 - Playing In The Band >
14 - Terrapin Station >
15 - Playing In The Band Jam >
16 - Drums >
17 - Space >
18 - The Wheel >
19 - Black Peter >
20 - Around And Around >
21 - Sunshine Daydream

Encore:
22 - Encore Break
23 - Box Of Rain


SHNTOOL OUTPUT:
    length     expanded size    cdr  WAVE problems  fmt   ratio  filename
     1:04.646      37236338 B   cxx   --   ---xx   flac  0.5586  01 Tuning.flac
     6:28.315     223669334 B   cxx   --   ---xx   flac  0.6733  02 Hell In A Bucket.flac
     7:26.254     257042126 B   cxx   --   ---xx   flac  0.6740  03 Bertha.flac
     7:32.410     260588336 B   cxx   --   ---xx   flac  0.6504  04 Walkin' Blues.flac
    11:04.021     382476116 B   cxx   --   ---xx   flac  0.6520  05 Ramble On Rose.flac
     3:17.086     113521622 B   cxx   --   ---xx   flac  0.6786  06 Beat It On Down The Line.flac
     8:05.282     279522302 B   cxx   --   ---xx   flac  0.6549  07 Big Railroad Blues.flac
     8:03.272     278364590 B   cxx   --   ---xx   flac  0.6198  08 Just Like Tom Thumb's Blues.flac
    13:59.423     483507404 B   cxx   --   ---xx   flac  0.6666  09 Let It Grow.flac
     3:00.125     103751804 B   cxx   --   ---xx   flac  0.5844  10 Tuning.flac
     2:51.402      98727620 B   cxx   --   ---xx   flac  0.6768  11 Sugar Magnolia.flac
    12:59.616     449059064 B   cxx   --   ---xx   flac  0.6714  12 Foolish Heart.flac
     8:47.799     304012178 B   cxx   --   ---xx   flac  0.6615  13 Playing In The Band.flac
    12:17.560     424834610 B   cxx   --   ---xx   flac  0.6616  14 Terrapin Station.flac
     3:12.071     110633018 B   cxx   --   ---xx   flac  0.6438  15 Playing In The Band Jam.flac
    10:27.533     361459166 B   cxx   --   ---xx   flac  0.6236  16 Drums.flac
     8:26.445     291712280 B   cxx   --   ---xx   flac  0.6351  17 Space.flac
     4:45.591     164500442 B   cxx   --   ---xx   flac  0.6642  18 The Wheel.flac
     9:18.187     321515582 B   cxx   --   ---xx   flac  0.6524  19 Black Peter.flac
     3:45.509     129893348 B   cxx   --   ---xx   flac  0.6715  20 Around And Around.flac
     6:27.980     223476506 B   cxx   --   ---xx   flac  0.6652  21 Sunshine Daydream.flac
     1:30.910      52364108 B   cxx   --   ---xx   flac  0.5962  22 Encore Break.flac
     5:08.927     177942068 B   cxx   --   ---xx   flac  0.6673  23 Box Of Rain.flac
   160:00.363    5529809962 B                            0.6540  (23 files)



More information about the bittorrent mailing list