[bittorrent] gd1991-09-08.149783.sbd.cm.miller.flac24

Automated Mailer noreply-bt.e at etree.org
Sat May 9 16:50:31 UTC 2020


Band:           Grateful Dead
Torrent Name:   gd1991-09-08.149783.sbd.cm.miller.flac24
Uploaded by:    norm
DB Link:        
Details:        http://bt.etree.org/details.php?id=609616

Contact the seeder at http://db.etree.org/norm

If the link to this show does not work, it was probably removed for
being non-trade-friendly.

Description / text file:
-------------------------
Grateful Dead - September 8, 1991
Madison Square Garden - New York, NY

Recording Info:
SBD > Cassette Master (TDK SA-X100)

Transfer Info:
Cassette Master (Nakamichi CR-7A) > Tascam DA-3000 (DSF 1-bit/5.6MHz) >
dBpoweramp > Samplitude Pro X4 Suite > FLAC/24
(1 DVD FLAC)

All Transfers and Mastering By Charlie Miller
charliemiller87 at earthlink.net
May 2, 2020

Notes:
-- Recorded by Don Pearson and Dan Healy
-- Multiple sets of masters were used to make this show complete

Set 1:
01 - Tuning
02 - Touch Of Grey >
03 - Greatest Story Ever Told
04 - Loser
05 - New Minglewood Blues
06 - Candyman
07 - Big River >
08 - Maggie's Farm
09 - Row Jimmy
10 - Let It Grow

Set 2:
11 - Tuning
12 - Samson And Delilah
13 - Eyes Of The World >
14 - Saint Of Circumstance >
15 - Dark Star Jam >
16 - Drums >
17 - Space >
18 - The Other One >
19 - Wharf Rat >
20 - Good Lovin'

Encore:
21 - Tuning
22 - Attics Of My Life


SHNTOOL OUTPUT:
    length     expanded size    cdr  WAVE problems  fmt   ratio  filename
     1:49.162      62877302 B   cxx   --   ---xx   flac  0.5397  01 Tuning.flac
     6:37.186     228779138 B   cxx   --   ---xx   flac  0.6657  02 Touch Of Grey.flac
     5:31.535     190964246 B   cxx   --   ---xx   flac  0.6487  03 Greatest Story Ever Told.flac
     8:47.326     303739868 B   cxx   --   ---xx   flac  0.6514  04 Loser.flac
     9:23.409     324523850 B   cxx   --   ---xx   flac  0.6552  05 New Minglewood Blues.flac
     7:22.598     254936336 B   cxx   --   ---xx   flac  0.6484  06 Candyman.flac
     5:24.947     187169522 B   cxx   --   ---xx   flac  0.6668  07 Big River.flac
     9:25.411     325676954 B   cxx   --   ---xx   flac  0.6326  08 Maggie's Farm.flac
     9:20.549     322876010 B   cxx   --   ---xx   flac  0.6620  09 Row Jimmy.flac
    14:13.172     491427158 B   cxx   --   ---xx   flac  0.6597  10 Let It Grow.flac
     0:46.180      26599832 B   cxx   --   ---xx   flac  0.4906  11 Tuning.flac
     8:19.564     287748848 B   cxx   --   ---xx   flac  0.6558  12 Samson And Delilah.flac
    14:19.271     494939882 B   cxx   --   ---xx   flac  0.6579  13 Eyes Of The World.flac
     6:57.799     240652478 B   cxx   --   ---xx   flac  0.6711  14 Saint Of Circumstance.flac
     9:28.200     327283088 B   cxx   --   ---xx   flac  0.6533  15 Dark Star Jam.flac
    11:29.297     397035020 B   cxx   --   ---xx   flac  0.6289  16 Drums.flac
     7:19.950     253411034 B   cxx   --   ---xx   flac  0.6089  17 Space.flac
     9:50.788     340293800 B   cxx   --   ---xx   flac  0.6513  18 The Other One.flac
    10:06.200     349171214 B   cxx   --   ---xx   flac  0.6517  19 Wharf Rat.flac
     6:47.263     234583646 B   cxx   --   ---xx   flac  0.6550  20 Good Lovin'.flac
     1:00.613      34913282 B   cxx   --   ---xx   flac  0.6383  21 Tuning.flac
     5:17.466     182860220 B   cxx   --   ---xx   flac  0.6619  22 Attics Of My LIfe.flac
   169:37.885    5862462728 B                            0.6495  (22 files)



More information about the bittorrent mailing list