[bittorrent] Magnolia Express With Special Guest Jared Womack Russell Brown's House Atlanta, Georgia 5/8/2020 (Schoeps CCM4V'S FOB)

Automated Mailer noreply-bt.e at etree.org
Sat May 9 03:36:47 UTC 2020


Band:           Other
Torrent Name:   Magnolia Express With Special Guest Jared Womack Russell Brown's House Atlanta, Georgia 5/8/2020 (Schoeps CCM4V'S FOB)
Uploaded by:    zmanatl
DB Link:        
Details:        http://bt.etree.org/details.php?id=609615

Contact the seeder at http://db.etree.org/zmanatl

If the link to this show does not work, it was probably removed for
being non-trade-friendly.

Description / text file:
-------------------------
Magnolia Express With Special Guest Jared Womack
Russell Brown's House
Atlanta, Georgia
5/8/2020

Source: Source: Schoeps CCM4V'S>Lunatec V2>Sound Devices 722 (24/44.1)
FOB/DFC/KFC/ZFC/AARP 4' From Stage, 5' High
DSP: Sound Devices 722>Sound Forge 10.0>CD Wave>flac(16)
ID3 Tagged In Foobar 2000
Recorded By: Z-Man 
Seeded By: Z-Man
A Team Dirty South Recording

Disc I 1st Set

01 Greeting/Introduction By Z-Man 
02 Mexicali Blues 
03 Hold What You Got >
04 Turn On Your Lovelight
05 The Monkey And The Engineer 
06 Shady Grove
07 Rocky Road Blues
08 Glendale Train
09 Paradise
10 Mama Tried >
11 I Know You Rider
12 idnight Moonlight
13 Rocky Top
14 Band Introductions/Outro

Russell Brown - Guitar And Vocals
Scott Balun - Bass And Vocals
Joe Kimsey - BanJo
Jared Womack Of Grass Is Dead - Dobro

magnolia2020-05-08d01t01.flac:b5ea8bd3bea22639006880d027bf16a7
magnolia2020-05-08d01t02.flac:7770fd963e7c8631799dd56985c9af84
magnolia2020-05-08d01t03.flac:d7034613bad6ac93e7e59a6ebe2273f7
magnolia2020-05-08d01t04.flac:63cfbdd12034e76a781b145f5a5e7a95
magnolia2020-05-08d01t05.flac:5e159ec2c058adc73109fda15cb0cf0d
magnolia2020-05-08d01t06.flac:79457b762e57c70ac10955d397d1b63d
magnolia2020-05-08d01t07.flac:6ea6284571f2630ee0a64da7b835bac8
magnolia2020-05-08d01t08.flac:a7ff1b494156aa5ee283956bc650dc88
magnolia2020-05-08d01t09.flac:fba76dfa2dcc061d11683c291fe25e5c
magnolia2020-05-08d01t10.flac:c0a543f838e0df2450ff3734e52a7b08
magnolia2020-05-08d01t11.flac:c16f886ffc6241c2b8a0a1f5e49cddfb
magnolia2020-05-08d01t12.flac:d7b8789435dd99eeb7957c54f0d83f12
magnolia2020-05-08d01t13.flac:5d5c69e78b9e3778c42b339413e40abb
magnolia2020-05-08d01t14.flac:25f55999824c884eea9010d306ced64f

length     expanded size    cdr  WAVE problems  fmt   ratio  filename
     1:37.29       17179052 B   ---   --   ---xx   flac  0.3916  magnolia2020-05-08d01t01.flac
     5:50.30       61810604 B   ---   --   ---xx   flac  0.5217  magnolia2020-05-08d01t02.flac
     3:07.26       33047996 B   ---   --   ---xx   flac  0.5581  magnolia2020-05-08d01t03.flac
     6:55.19       73250732 B   ---   --   ---xx   flac  0.5162  magnolia2020-05-08d01t04.flac
     3:05.56       32765756 B   ---   --   ---xx   flac  0.5073  magnolia2020-05-08d01t05.flac
     5:48.20       61434284 B   ---   --   ---xx   flac  0.4814  magnolia2020-05-08d01t06.flac
     5:08.03       54338300 B   ---   --   ---xx   flac  0.5141  magnolia2020-05-08d01t07.flac
     6:59.43       74012780 B   ---   --   ---xx   flac  0.5134  magnolia2020-05-08d01t08.flac
     4:48.58       50939660 B   ---   --   ---xx   flac  0.4678  magnolia2020-05-08d01t09.flac
     2:22.53       25173500 B   ---   --   ---xx   flac  0.5404  magnolia2020-05-08d01t10.flac
     5:31.24       58444892 B   ---   --   ---xx   flac  0.5007  magnolia2020-05-08d01t11.flac
    10:55.54      115669052 B   ---   --   ---xx   flac  0.5139  magnolia2020-05-08d01t12.flac
     4:28.40       47369324 B   ---   --   ---xx   flac  0.5895  magnolia2020-05-08d01t13.flac
     2:35.71       27509036 B   ---   --   ---xx   flac  0.4290  magnolia2020-05-08d01t14.flac
    69:15.01      732944968 B                            0.5092  (14 files)







More information about the bittorrent mailing list