[bittorrent] Dr. Rock John Foti's House Marietta, Georgia 5/5/2020 (Ween Cover Band) (Schoeps CCM4V'S FOB)

Automated Mailer noreply-bt.e at etree.org
Wed May 6 17:00:24 UTC 2020


Band:           Other
Torrent Name:   Dr. Rock John Foti's House Marietta, Georgia 5/5/2020 (Ween Cover Band) (Schoeps CCM4V'S FOB)
Uploaded by:    zmanatl
DB Link:        
Details:        http://bt.etree.org/details.php?id=609601

Contact the seeder at http://db.etree.org/zmanatl

If the link to this show does not work, it was probably removed for
being non-trade-friendly.

Description / text file:
-------------------------
Dr. Rock (Ween Cover Band)
John Foti's House
Marietta, Georgia
5/5/2020

Source: Source: Schoeps CCM4V'S>Lunatec V2>Sound Devices 722 (24/44.1)
FOB/DFc/KFC/ZFC/AARP 8' From Stage, 6' High
DSP: Sound Devices 722>Sound Forge 10.0>CD Wave>flac(16)
ID3 Tagged In Foobar 2000
Recorded By: Z-Man
Seeded By: Z-Man
A Team Dirty South Recording

Disc I 1st Set

01 *Buenos Tardes
02 *Did You See Me
03 Transdermal Celebration
04 What Deaner Was Talking About > 
05 Ocean Man
06 Buckingham Green
07 Roses Are Free
08 A Tear For Eddy
09 Band On The Run

Disc II 2nd Set

01 #Fiesta
02 Ice Castles >
03 The Final Alarm
04 Gabrielle
05 Booze It Up And Get Me High
06 Blarney Stone
07 Jam As Mike Switches Guitars Due To Broken String
08 Dr. Rock
09 The Grobe
10 Beacon Light
11 #Falling Out
12 Awesome Sound
13 I Don't Want It 
14 Even If You Don't
15 Bananas And Blow
16 Dickey Betts

* With Mike On Acoustic Guitar
# First Time Played

Jeremy "Jerbo" Foti - Bass
Mike Heneghan - Guitar And Vocals
Casey Higgins - Guitar
Rick Shoemaker - Drums And Vocals

Show Notes: These guys are local friends/musicians. They Just started this Ween cover band a littleover 2 months ago.
Keep in mind, the past month they could not get together and practice due to the Corona Virus. They have learned a
boatload of songs in this short period.

drrock2020-05-05d01t01.flac:63b65f5a557f8c3a8933077ac8267d80
drrock2020-05-05d01t02.flac:d099deb8fcdc1789d692d91e7ea6f7c2
drrock2020-05-05d01t03.flac:796c9643dd6f171b9478ab99789c9ea7
drrock2020-05-05d01t04.flac:18034f36d97bd6fb26958616ce677a6c
drrock2020-05-05d01t05.flac:be1401dce058657f22d1bb3361db287e
drrock2020-05-05d01t06.flac:41b83f5c1c36fe5a5262d4ede442fa66
drrock2020-05-05d01t07.flac:4f5cfb478fea503b44cb0d22411d203f
drrock2020-05-05d01t08.flac:524c427295c89893578b5296347218c3
drrock2020-05-05d01t09.flac:74e6a78ddd6fb8dbf8386893cdaa19ec
drrock2020-05-05d02t01.flac:af08e19f592365ffb0905555ccb875d4
drrock2020-05-05d02t02.flac:a9f95a0b2a1ba57a8f36de6788722c1e
drrock2020-05-05d02t03.flac:684694821a7d48d272633b7745326ba2
drrock2020-05-05d02t04.flac:7e14483fb21f713fe7bdd948c041521a
drrock2020-05-05d02t05.flac:62413517c985ca84ddf74593e7a35cd5
drrock2020-05-05d02t06.flac:7b8ed592c8c842cfac5ddc9010939efa
drrock2020-05-05d02t07.flac:e41df98aa1c6c93798c36a4843c4011e
drrock2020-05-05d02t08.flac:8538e03db2ab568dcdef52266ece729d
drrock2020-05-05d02t09.flac:0f8fe3c53b3062a57bb07164080e9d0c
drrock2020-05-05d02t10.flac:c658ade7d756419b5f89a0352245c096
drrock2020-05-05d02t11.flac:27c991347aedb42297bee9c307e7b5f0
drrock2020-05-05d02t12.flac:98c69de2e649125e83d80041a05b1e8d
drrock2020-05-05d02t13.flac:f94d7e1ca8379182cb8a229627866ea3
drrock2020-05-05d02t14.flac:195a79263e17fbfdcb4e46519b1b62a5
drrock2020-05-05d02t15.flac:75cb5955154a564219e693f5ecc29ccb
drrock2020-05-05d02t16.flac:fc0098d38b6dc731c70f6ba625ac824f

length     expanded size    cdr  WAVE problems  fmt   ratio  filename
     8:16.36       87579116 B   ---   --   ---xx   flac  0.3820  drrock2020-05-05d01t01.flac
     5:14.72       55558988 B   ---   --   ---xx   flac  0.4182  drrock2020-05-05d01t02.flac
     3:27.56       36646556 B   ---   --   ---xx   flac  0.4885  drrock2020-05-05d01t03.flac
     1:45.36       18606716 B   ---   --   ---xx   flac  0.5231  drrock2020-05-05d01t04.flac
     2:30.66       26615276 B   ---   --   ---xx   flac  0.5054  drrock2020-05-05d01t05.flac
     4:03.12       42893468 B   ---   --   ---xx   flac  0.4415  drrock2020-05-05d01t06.flac
     6:39.72       70552988 B   ---   --   ---xx   flac  0.5557  drrock2020-05-05d01t07.flac
     5:23.41       57073676 B   ---   --   ---xx   flac  0.4913  drrock2020-05-05d01t08.flac
     5:43.31       60578156 B   ---   --   ---xx   flac  0.4937  drrock2020-05-05d01t09.flac
     2:28.08       26126060 B   ---   --   ---xx   flac  0.4835  drrock2020-05-05d02t01.flac
     2:19.71       24686636 B   ---   --   ---xx   flac  0.3533  drrock2020-05-05d02t02.flac
     3:38.43       38556380 B   ---   --   ---xx   flac  0.5482  drrock2020-05-05d02t03.flac
     4:03.61       43008716 B   ---   --   ---xx   flac  0.5514  drrock2020-05-05d02t04.flac
     4:07.37       43657868 B   ---   --   ---xx   flac  0.5138  drrock2020-05-05d02t05.flac
     6:21.58       67344860 B   ---   --   ---xx   flac  0.5172  drrock2020-05-05d02t06.flac
     3:17.03       34757900 B   ---   --   ---xx   flac  0.3830  drrock2020-05-05d02t07.flac
     3:08.28       33229100 B   ---   --   ---xx   flac  0.5645  drrock2020-05-05d02t08.flac
     3:29.40       36961724 B   ---   --   ---xx   flac  0.5460  drrock2020-05-05d02t09.flac
     4:19.32       45762908 B   ---   --   ---xx   flac  0.5526  drrock2020-05-05d02t10.flac
     3:59.61       42303116 B   ---   --   ---xx   flac  0.4685  drrock2020-05-05d02t11.flac
     3:03.41       32377676 B   ---   --   ---xx   flac  0.4896  drrock2020-05-05d02t12.flac
     3:25.31       36234956 B   ---   --   ---xx   flac  0.4327  drrock2020-05-05d02t13.flac
     3:22.01       35635196 B   ---   --   ---xx   flac  0.5053  drrock2020-05-05d02t14.flac
     3:49.27       40459148 B   ---   --   ---xx   flac  0.5213  drrock2020-05-05d02t15.flac
     5:18.24       56151692 B   ---   --   ---xx   flac  0.4894  drrock2020-05-05d02t16.flac
   103:18.13     1093358876 B                            0.4873  (25 files)







More information about the bittorrent mailing list