[bittorrent] gd1991-03-29.149815.UltraMatrix.sbd.cm.miller.flac16

Automated Mailer noreply-bt.e at etree.org
Wed May 6 05:48:37 UTC 2020


Band:           Grateful Dead
Torrent Name:   gd1991-03-29.149815.UltraMatrix.sbd.cm.miller.flac16
Uploaded by:    norm
DB Link:        
Details:        http://bt.etree.org/details.php?id=609600

Contact the seeder at http://db.etree.org/norm

If the link to this show does not work, it was probably removed for
being non-trade-friendly.

Description / text file:
-------------------------
Grateful Dead - March 29, 1991
Nassau Coliseum - Uniondale, NY

Recording Info:
UltraMatrix SBD > Cassette Master (TDK SA-X100)

Transfer Info:
Cassette Master (Nakamichi CR-7A) > Tascam DA-3000 (DSF 1-bit/5.6 MHz) >
dBpoweramp > Samplitude Pro X3 Suite > FLAC/24
(1 DVD FLAC)

All Transfers and Mastering by Charlie Miller
charliemiller87 at earthlink.net
February 13, 2020

Notes:
-- This is a fix of shnid=142237 (Fixed New Speedway Boogie)
-- Two sets of masters were used to make this show complete
-- Thanks to Scott Clugston for his help with this project
-- This file set is 16 bit @ 44.1
-- 142431 supply aLL tracks but New Speedway Boogie
-- 149075 24 -> 16 New Speedway Boogie and house keeping files, only change from 142431

Set 1:
01 - Tuning
02 - Feel Like A Stranger
03 - Sugaree
04 - Walkin' Blues
05 - Dire Wolf
06 - Me And My Uncle >
07 - Mexicali Blues
08 - Althea
09 - When I Paint My Masterpiece

Set 2:
10 - Tuning
11 - Iko Iko
12 - Saint Of Circumstance >
13 - New Speedway Boogie >
14 - Truckin' >
15 - Drums >
16 - Space >
17 - The Other One >
18 - Wharf Rat >
19 - Throwing Stones >
20 - Touch Of Grey

Encore:
21 - Encore Break
22 - Brokedown Palace


SHNTOOL OUTPUT:
    length     expanded size    cdr  WAVE problems  fmt   ratio  filename
     2:35.55       27471404 B   ---   --   ---xx   flac  0.4732  01 Tuning.flac
     8:24.08       88924460 B   ---   --   ---xx   flac  0.6100  02 Feel Like A Stranger.flac
    13:27.19      142399532 B   ---   --   ---xx   flac  0.5819  03 Sugaree.flac
     8:27.12       89463068 B   ---   --   ---xx   flac  0.5527  04 Walkin' Blues.flac
     4:36.65       48839324 B   ---   --   ---xx   flac  0.5684  05 Dire Wolf.flac
     3:11.13       33723020 B   ---   --   ---xx   flac  0.6106  06 Me And My Uncle.flac
     5:47.00       61210844 B   ---   --   ---xx   flac  0.5967  07 Mexicali Blues.flac
     8:37.29       91267052 B   ---   --   ---xx   flac  0.5894  08 Althea.flac
     6:09.35       65173964 B   ---   --   ---xx   flac  0.5689  09 When I Paint My Masterpiece.flac
     0:20.29        3596252 B   ---   --   ---xx   flac  0.4349  10 Tuning.flac
     9:57.36      105395516 B   ---   --   ---xx   flac  0.6029  11 Iko Iko.flac
     6:51.15       72535724 B   ---   --   ---xx   flac  0.6058  12 Saint Of Circumstance.flac
     7:01.23       74318540 B   ---   --   ---xx   flac  0.5929  13 New Speedway Boogie.flac
    11:26.37      121097468 B   ---   --   ---xx   flac  0.6024  14 Truckin'.flac
    10:11.28      107846300 B   ---   --   ---xx   flac  0.4883  15 Drums.flac
     7:37.70       80779484 B   ---   --   ---xx   flac  0.5350  16 Space.flac
     9:42.31      102737756 B   ---   --   ---xx   flac  0.5800  17 The Other One.flac
    10:30.66      111287276 B   ---   --   ---xx   flac  0.5744  18 Wharf Rat.flac
     8:01.01       84850796 B   ---   --   ---xx   flac  0.5987  19 Throwing Stones.flac
     6:49.10       72171164 B   ---   --   ---xx   flac  0.6315  20 Touch Of Grey.flac
     0:54.07        9542108 B   ---   --   ---xx   flac  0.4997  21 Encore Break.flac
     5:41.28       60218300 B   ---   --   ---xx   flac  0.5692  22 Brokedown Palace.flac
   156:21.17     1654849352 B                            0.5778  (22 files)



More information about the bittorrent mailing list