[bittorrent] Z-Jerbo Jam John Foti's House Marietta, Georgia 5/4/2020 (Schoeps CCM4V'S FOB)

Automated Mailer noreply-bt.e at etree.org
Tue May 5 18:51:33 UTC 2020


Band:           Other
Torrent Name:   Z-Jerbo Jam  John Foti's House Marietta, Georgia 5/4/2020 (Schoeps CCM4V'S FOB)
Uploaded by:    zmanatl
DB Link:        
Details:        http://bt.etree.org/details.php?id=609594

Contact the seeder at http://db.etree.org/zmanatl

If the link to this show does not work, it was probably removed for
being non-trade-friendly.

Description / text file:
-------------------------
Z-Jerbo Jam 
John Foti's House
Marietta, Georgia
5/4/2020

Source: Source: Schoeps CCM4V'S>Lunatec V2>Sound Devices 722 (24/44.1)
FOB/DFc/KFC/ZFC/AARP 8' From Stage, 6 1/2' High
DSP: Sound Devices 722>Sound Forge 10.0>CD Wave>flac(16)
ID3 Tagged In Foobar 2000
Recorded By: Z-Man 
Seeded By: Z-Man
A Team Dirty South Recording

Disc I 1st Set

01 Feelin' Alright 
02 Eyes Of The World >
03 Goin' Down The Road Feelin' Bad
04 Cold Rain And Snow
05 Blue Sky
06 *Truckin' >
07 Other One >
08 Spanish Jam >
09 Man Smart, Women Smarter

Disc II 2nd Set 

01 Ranmble On Rose 
02 Back On The Train 
03 Possum
04 In Memory Of Elizabeth Reed >
05 Drum Solo >
06 In Memory Of Elizabeth Reed
07 It Hurts Me Too
08 Ophelia 
09 Cumerland Blues >
10 Big River


Disc III 3rd Set 

01 Brown-Eyed Women 
02 Come Together >
03 Shakedown Street >
04 Feel Like A Stanger Jam >
05 Shakedon Street >
06 Good lovin' 
Encore:
07 Ripple

* With Nobody's Fault But Mine Jam

Cassidy Wall - Guitar And Vocals
Russell "RB" Grown - Guitar And Vocals
Jeremy "Jerbo" Foti - Bass
Diane Rabson - Keyboards And Vocals
Hayden Wall - Drums And Slide Flute

I put this "Band" together for a Jam Session. We are all friends and I have tapedall of these guys over the years 
in Atlanta. Russell plays in Magnolia Express, Dian in Webster, Cassidy and Jerbo in Frankly Scarlet, and Hayden
when he sits in with Frankly Scarlet. They are all accomplished musicians who as a group, NEVER played in this
incarnation. No practice or warm-up, all done n the fly. I will admit, I instigated many of the songs that Jammed
into each other. As they say, I called a bunch of audibles as I could picture would go well together. Hope to do this
again next Monday. Hope everyone liked the stream and "show" half as much as I did!
 
zjerbo2020-05-04d01t01.flac:281551d7b00f5390ac14cadabb5ae74d
zjerbo2020-05-04d01t02.flac:6fe60686e1731e68562a8b76ffe6d97b
zjerbo2020-05-04d01t03.flac:86e3eb4e7b3f7640e81c26ddd44a8722
zjerbo2020-05-04d01t04.flac:0b6bc0ac10dca968cafb8bc6a12d16de
zjerbo2020-05-04d01t05.flac:71be44a55370d4944b2b949624abdf49
zjerbo2020-05-04d01t06.flac:068734492f31883b0233d61698246222
zjerbo2020-05-04d01t07.flac:9931cec7c1c9f8d41ba72eb58599f8ce
zjerbo2020-05-04d01t08.flac:a92dbbc1a1ca0bf0ba84406213acdb76
zjerbo2020-05-04d01t09.flac:7ec05d452395c59d74d1816ff8706d92
zjerbo2020-05-04d02t01.flac:c0e5b1e81162869d06ced5bbe514bec2
zjerbo2020-05-04d02t02.flac:b088f47327f9ede25dcf3a5d566f7701
zjerbo2020-05-04d02t03.flac:6f4f73ce5de5f1010b63dc7c07013470
zjerbo2020-05-04d02t04.flac:18aea5b6695ec8f60a674a6115ef617b
zjerbo2020-05-04d02t05.flac:eda9792fb8acf45df4c590cf96c85272
zjerbo2020-05-04d02t06.flac:8f71639272cfb54314413c6c02c6ef39
zjerbo2020-05-04d02t07.flac:52a6dad801c98a3b4c5a0913306e106f
zjerbo2020-05-04d02t08.flac:9efb03137ac75ef428ac1e1364bbc997
zjerbo2020-05-04d02t09.flac:e28344f21542ca0776224ab4ef058126
zjerbo2020-05-04d02t10.flac:fc1e8425cd29afd41c96d2053361e5df
zjerbo2020-05-04d03t01.flac:298af8c66e23727f23ffff86d8477b9f
zjerbo2020-05-04d03t02.flac:9f183f84eff7b1e158eeae504b5cb423
zjerbo2020-05-04d03t03.flac:0f555680605dbd24d7b21ee4751421ff
zjerbo2020-05-04d03t04.flac:68c16ac41146b35a9f3e33ef1a3abcd9
zjerbo2020-05-04d03t05.flac:02dc761edff75807f22b77d2fd8db5e2
zjerbo2020-05-04d03t06.flac:27d2f2e932fdf7ac8a20785c02687ea2
zjerbo2020-05-04d03t07.flac:790360accea8e86311ab1bff348855d8

 length     expanded size    cdr  WAVE problems  fmt   ratio  filename
    15:07.42      160093628 B   ---   --   ---xx   flac  0.5388  zjerbo2020-05-04d01t01.flac
    11:07.15      117694124 B   ---   --   ---xx   flac  0.5592  zjerbo2020-05-04d01t02.flac
     9:30.51      100667996 B   ---   --   ---xx   flac  0.6280  zjerbo2020-05-04d01t03.flac
     5:09.35       54589964 B   ---   --   ---xx   flac  0.5920  zjerbo2020-05-04d01t04.flac
     7:14.35       76639964 B   ---   --   ---xx   flac  0.5822  zjerbo2020-05-04d01t05.flac
    11:05.14      117338972 B   ---   --   ---xx   flac  0.6075  zjerbo2020-05-04d01t06.flac
     8:03.50       85318844 B   ---   --   ---xx   flac  0.5730  zjerbo2020-05-04d01t07.flac
     5:08.37       54418268 B   ---   --   ---xx   flac  0.4866  zjerbo2020-05-04d01t08.flac
     7:29.46       79311836 B   ---   --   ---xx   flac  0.5581  zjerbo2020-05-04d01t09.flac
     6:54.26       73090796 B   ---   --   ---xx   flac  0.5086  zjerbo2020-05-04d02t01.flac
     6:18.24       66735692 B   ---   --   ---xx   flac  0.5606  zjerbo2020-05-04d02t02.flac
     6:03.28       64099100 B   ---   --   ---xx   flac  0.6237  zjerbo2020-05-04d02t03.flac
     9:55.08      104976860 B   ---   --   ---xx   flac  0.5857  zjerbo2020-05-04d02t04.flac
     1:40.19       17684732 B   ---   --   ---xx   flac  0.4916  zjerbo2020-05-04d02t05.flac
     0:47.07        8307308 B   ---   --   ---xx   flac  0.5075  zjerbo2020-05-04d02t06.flac
     9:35.09      101451212 B   ---   --   ---xx   flac  0.4783  zjerbo2020-05-04d02t07.flac
     4:53.39       51776972 B   ---   --   ---xx   flac  0.5917  zjerbo2020-05-04d02t08.flac
     9:04.52       96083948 B   ---   --   ---xx   flac  0.5992  zjerbo2020-05-04d02t09.flac
     7:45.10       82049564 B   ---   --   ---xx   flac  0.5530  zjerbo2020-05-04d02t10.flac
     7:44.68       82009580 B   ---   --   ---xx   flac  0.5530  zjerbo2020-05-04d03t01.flac
     7:21.17       77832428 B   ---   --   ---xx   flac  0.5332  zjerbo2020-05-04d03t02.flac
     9:09.72       97012988 B   ---   --   ---xx   flac  0.6068  zjerbo2020-05-04d03t03.flac
     1:21.31       14361356 B   ---   --   ---xx   flac  0.6467  zjerbo2020-05-04d03t04.flac
     5:22.54       56927852 B   ---   --   ---xx   flac  0.5490  zjerbo2020-05-04d03t05.flac
     7:23.24       78201692 B   ---   --   ---xx   flac  0.5583  zjerbo2020-05-04d03t06.flac
     5:50.47       61850588 B   ---   --   ---xx   flac  0.4556  zjerbo2020-05-04d03t07.flac
   187:07.35     1980526264 B                            0.5616  (26 files)












More information about the bittorrent mailing list