[bittorrent] gd1990-03-18.149785. UltraMatrix.sbd.cm.miller.flac16

Automated Mailer noreply-bt.e at etree.org
Sun May 3 11:26:30 UTC 2020


Band:           Grateful Dead
Torrent Name:   gd1990-03-18.149785. UltraMatrix.sbd.cm.miller.flac16
Uploaded by:    norm
DB Link:        
Details:        http://bt.etree.org/details.php?id=609575

Contact the seeder at http://db.etree.org/norm

If the link to this show does not work, it was probably removed for
being non-trade-friendly.

Description / text file:
-------------------------
Grateful Dead - March 18, 1990
Hartford Civic Center - Hartford, CT

Recording Info:
UltraMatrix SBD > Cassette Master (TDK MA-X90)

Transfer Info:
Cassette Master (Nakamichi CR-7A) > Tascam DA-3000 (DSF 1-bit/5.6MHz) >
Adobe Audition CC 2015 > Samplitude Pro X4 Suite > FLAC/24
(1 DVD FLAC)

Patch Info:
Pre-FM > Reel Master > Dat (shnid=9364) supplies:
Drums (4:45 - end of track)
Space (0:00 - 2:20)

All Transfers and Mastering by Charlie Miller
charliemiller87 at earthlink.net
April 7, 2020

Notes:
-- Recorded by Don Pearson and Dan Healy
-- This file set is 16 bit @ 44.1

Set 1:
01 - Tuning
02 - Shakedown Street >
03 - Little Red Rooster
04 - Stagger Lee
05 - Me And My Uncle >
06 - Mexicali Blues
07 - Friend Of The Devil
08 - Just A Little Light
09 - When I Paint My Masterpiece
10 - Ramble On Rose
11 - The Music Never Stopped

Set 2:
12 - Tuning
13 - Iko Iko >
14 - Looks Like Rain
15 - He's Gone >
16 - Truckin' >
17 - Spoonful >
18 - Drums >
19 - Space >
20 - The Wheel >
21 - All Along The Watchtower >
22 - Morning Dew

Encore:
23 - Encore Break
24 - U.S. Blues


SHNTOOL OUTPUT:
    length     expanded size    cdr  WAVE problems  fmt   ratio  filename
     0:38.23        6757340 B   ---   --   ---xx   flac  0.5754  01 Tuning.flac
    12:32.16      132690476 B   ---   --   ---xx   flac  0.6596  02 Shakedown Street.flac
    11:13.51      118837196 B   ---   --   ---xx   flac  0.6313  03 Little Red Rooster.flac
     6:32.61       69292316 B   ---   --   ---xx   flac  0.6352  04 Stagger Lee.flac
     3:04.59       32596412 B   ---   --   ---xx   flac  0.6625  05 Me And My Uncle.flac
     6:30.64       68946572 B   ---   --   ---xx   flac  0.6380  06 Mexicali Blues.flac
     9:43.26      102902396 B   ---   --   ---xx   flac  0.6245  07 Friend Of The Devil.flac
     5:58.29       63219452 B   ---   --   ---xx   flac  0.6533  08 Just A Little Light.flac
     5:48.06       61401356 B   ---   --   ---xx   flac  0.6302  09 When I Paint My Masterpiece.flac
     9:02.00       95608844 B   ---   --   ---xx   flac  0.6157  10 Ramble On Rose.flac
     7:39.59       81106412 B   ---   --   ---xx   flac  0.6540  11 The Music Never Stopped.flac
     1:42.36       18077516 B   ---   --   ---xx   flac  0.5497  12 Tuning.flac
     8:00.27       84735548 B   ---   --   ---xx   flac  0.6530  13 Iko Iko.flac
     8:20.25       88258844 B   ---   --   ---xx   flac  0.6342  14 Looks Like Rain.flac
     9:02.15       95644124 B   ---   --   ---xx   flac  0.6401  15 He's Gone.flac
     8:53.38       94110620 B   ---   --   ---xx   flac  0.6646  16 Truckin'.flac
     7:20.12       77644268 B   ---   --   ---xx   flac  0.6024  17 Spoonful.flac
     8:34.52       90791948 B   ---   --   ---xx   flac  0.4967  18 Drums.flac
     9:16.55       98207804 B   ---   --   ---xx   flac  0.5645  19 Space.flac
     5:54.22       62497388 B   ---   --   ---xx   flac  0.6549  20 The Wheel.flac
     6:08.37       65002268 B   ---   --   ---xx   flac  0.6657  21 All Along The Watchtower.flac
    10:53.32      115264508 B   ---   --   ---xx   flac  0.6180  22 Morning Dew.flac
     2:43.54       28880252 B   ---   --   ---xx   flac  0.5583  23 Encore Break.flac
     6:13.53       65921900 B   ---   --   ---xx   flac  0.6473  24 US Blues.flac
   171:48.27     1818395760 B                            0.6262  (24 files)



More information about the bittorrent mailing list