[bittorrent] Magnolia Express Russell Brown's House Atlanta, Georgia 5/2/2020 (Schoeps CCM4V'S FOB)

Automated Mailer noreply-bt.e at etree.org
Sun May 3 03:33:37 UTC 2020


Band:           Other
Torrent Name:   Magnolia Express Russell Brown's House Atlanta, Georgia 5/2/2020 (Schoeps CCM4V'S FOB)
Uploaded by:    zmanatl
DB Link:        
Details:        http://bt.etree.org/details.php?id=609574

Contact the seeder at http://db.etree.org/zmanatl

If the link to this show does not work, it was probably removed for
being non-trade-friendly.

Description / text file:
-------------------------
Magnolia Express
Russell Brown's House
Atlanta, Georgia
5/2/2020

Source: Source: Schoeps CCM4V'S>Lunatec V2>Sound Devices 722 (24/44.1)
FOB/DFc/KFC/ZFC/AARP 6' From Stage, 6' High
DSP: Sound Devices 722>Sound Forge 10.0>CD Wave>flac(16)
ID3 Tagged In Foobar 2000
Recorded By: Z-Man 
Seeded By: Z-Man
A Team Dirty South Recording

Disc I 

01 Intro By Z-Man/Rusell Banter
02 Whiskey Before Breakfast 
03 Mama Raised Me Right (But I Went Left) >
04 Big River
05 Deep Elem Blues
06 Cardboard Box 
07 Rosalie McFall 
08 My Lady And Me 
09 Eastbound And Down
10 Catfish John
11 Foggy Mountain Breakdown 
12 Mama Tried >
13 I Know You Rider
14 Midnight Moonlight
15 Friend Of The Devil

Russell Brown - Guitar And Vocals
Scott Balum - Bass
Jacques - Fiddle
Joe Kimsey - BanJo
Carrie Holley - Vocals

magnolia2020-05-02d01t0.flac:48afa51e60571c0903fbe98a767f973d
magnolia2020-05-02d01t01.flac:cb8853c3350d5f1ff31f3ee1aafbd3c5
magnolia2020-05-02d01t02.flac:556f7b6241594e8c19406ce86437ea23
magnolia2020-05-02d01t03.flac:a4ab8ca84819addda657b7f95cb89814
magnolia2020-05-02d01t04.flac:2a97edfea618e1fe67d1180fd26a09b2
magnolia2020-05-02d01t05.flac:447bfda60c6c75707b53b953f33a18ff
magnolia2020-05-02d01t06.flac:330e14b9c5d369d1125dc070a8388ec5
magnolia2020-05-02d01t07.flac:cdbf41697b22a1693c41d1d0afe6a5f1
magnolia2020-05-02d01t08.flac:6fcb2c46b19afe06db6335a23f946d33
magnolia2020-05-02d01t10.flac:ce27b9d1a4717f2dfc2a48efdf72b9a8
magnolia2020-05-02d01t11.flac:0b1eea0ebe7e0188d31f7629613e3807
magnolia2020-05-02d01t12.flac:391cb41e33c6e5ee4e1e200b532eaefe
magnolia2020-05-02d01t13.flac:bc1de01d5868e6eb0bc0f8cb6bc9a088
magnolia2020-05-02d01t14.flac:15bd7601501506425b67dc73c5bf8ace
magnolia2020-05-02d01t15.flac:20f12c0e5dbd5893cbf85f40128310ab

length     expanded size    cdr  WAVE problems  fmt   ratio  filename
     3:40.11       38833916 B   ---   --   ---xx   flac  0.4914  magnolia2020-05-02d01t0.flac
     1:51.33       19658060 B   ---   --   ---xx   flac  0.3588  magnolia2020-05-02d01t01.flac
     2:24.43       25502780 B   ---   --   ---xx   flac  0.4328  magnolia2020-05-02d01t02.flac
     4:02.19       42733532 B   ---   --   ---xx   flac  0.4678  magnolia2020-05-02d01t03.flac
     4:37.55       48992204 B   ---   --   ---xx   flac  0.4598  magnolia2020-05-02d01t04.flac
     5:45.69       61020332 B   ---   --   ---xx   flac  0.4393  magnolia2020-05-02d01t05.flac
    11:27.11      121212716 B   ---   --   ---xx   flac  0.4152  magnolia2020-05-02d01t06.flac
     3:34.13       37780220 B   ---   --   ---xx   flac  0.4636  magnolia2020-05-02d01t07.flac
     4:47.43       50727980 B   ---   --   ---xx   flac  0.4268  magnolia2020-05-02d01t08.flac
     5:30.19       58256732 B   ---   --   ---xx   flac  0.4137  magnolia2020-05-02d01t10.flac
     3:05.46       32742236 B   ---   --   ---xx   flac  0.4518  magnolia2020-05-02d01t11.flac
     2:44.01       28931996 B   ---   --   ---xx   flac  0.4713  magnolia2020-05-02d01t12.flac
     5:08.11       54357116 B   ---   --   ---xx   flac  0.4476  magnolia2020-05-02d01t13.flac
     8:05.53       85678700 B   ---   --   ---xx   flac  0.4330  magnolia2020-05-02d01t14.flac
     5:43.31       60578156 B   ---   --   ---xx   flac  0.4455  magnolia2020-05-02d01t15.flac
    72:28.08      767006676 B                            0.4393  (15 files)









More information about the bittorrent mailing list