[bittorrent] gd1990-03-18.149480. UltraMatrix.sbd.cm.miller.flac24

Automated Mailer noreply-bt.e at etree.org
Sun May 3 03:22:15 UTC 2020


Band:           Grateful Dead
Torrent Name:   gd1990-03-18.149480. UltraMatrix.sbd.cm.miller.flac24
Uploaded by:    norm
DB Link:        
Details:        http://bt.etree.org/details.php?id=609573

Contact the seeder at http://db.etree.org/norm

If the link to this show does not work, it was probably removed for
being non-trade-friendly.

Description / text file:
-------------------------
Grateful Dead - March 18, 1990
Hartford Civic Center - Hartford, CT

Recording Info:
UltraMatrix SBD > Cassette Master (TDK MA-X90)

Transfer Info:
Cassette Master (Nakamichi CR-7A) > Tascam DA-3000 (DSF 1-bit/5.6MHz) >
Adobe Audition CC 2015 > Samplitude Pro X4 Suite > FLAC/24
(1 DVD FLAC)

Patch Info:
Pre-FM > Reel Master > Dat (shnid=9364) supplies:
Drums (4:45 - end of track)
Space (0:00 - 2:20)

All Transfers and Mastering by Charlie Miller
charliemiller87 at earthlink.net
April 7, 2020

Notes:
-- Recorded by Don Pearson and Dan Healy

Set 1:
01 - Tuning
02 - Shakedown Street >
03 - Little Red Rooster
04 - Stagger Lee
05 - Me And My Uncle >
06 - Mexicali Blues
07 - Friend Of The Devil
08 - Just A Little Light
09 - When I Paint My Masterpiece
10 - Ramble On Rose
11 - The Music Never Stopped

Set 2:
12 - Tuning
13 - Iko Iko >
14 - Looks Like Rain
15 - He's Gone >
16 - Truckin' >
17 - Spoonful >
18 - Drums >
19 - Space >
20 - The Wheel >
21 - All Along The Watchtower >
22 - Morning Dew

Encore:
23 - Encore Break
24 - U.S. Blues


SHNTOOL OUTPUT:
    length     expanded size    cdr  WAVE problems  fmt   ratio  filename
     0:38.316      22069802 B   cxx   --   ---xx   flac  0.6777  01 Tuning.flac
    12:32.206     433270592 B   cxx   --   ---xx   flac  0.7012  02 Shakedown Street.flac
    11:13.682     388041014 B   cxx   --   ---xx   flac  0.6851  03 Little Red Rooster.flac
     6:32.818     226263392 B   cxx   --   ---xx   flac  0.6856  04 Stagger Lee.flac
     3:04.782     106434356 B   cxx   --   ---xx   flac  0.6932  05 Me And My Uncle.flac
     6:30.856     225133046 B   cxx   --   ---xx   flac  0.6754  06 Mexicali Blues.flac
     9:43.344     336006134 B   cxx   --   ---xx   flac  0.6774  07 Friend Of The Devil.flac
     5:58.393     206434418 B   cxx   --   ---xx   flac  0.6887  08 Just A Little Light.flac
     5:48.073     200489960 B   cxx   --   ---xx   flac  0.6813  09 When I Paint My Masterpiece.flac
     9:02.009     312196994 B   cxx   --   ---xx   flac  0.6749  10 Ramble On Rose.flac
     7:39.776     264831278 B   cxx   --   ---xx   flac  0.6870  11 The Music Never Stopped.flac
     1:42.490      59034128 B   cxx   --   ---xx   flac  0.6597  12 Tuning.flac
     8:00.359     276686624 B   cxx   --   ---xx   flac  0.6921  13 Iko Iko.flac
     8:20.334     288192440 B   cxx   --   ---xx   flac  0.6870  14 Looks Like Rain.flac
     9:02.203     312308876 B   cxx   --   ---xx   flac  0.6870  15 He's Gone.flac
     8:53.500     307296326 B   cxx   --   ---xx   flac  0.6914  16 Truckin'.flac
     7:20.154     253528802 B   cxx   --   ---xx   flac  0.6703  17 Spoonful.flac
     8:34.693     296463344 B   cxx   --   ---xx   flac  0.5823  18 Drums.flac
     9:16.745     320684942 B   cxx   --   ---xx   flac  0.6405  19 Space.flac
     5:54.286     204068630 B   cxx   --   ---xx   flac  0.6941  20 The Wheel.flac
     6:08.500     212256002 B   cxx   --   ---xx   flac  0.6940  21 All Along The Watchtower.flac
    10:53.424     376372358 B   cxx   --   ---xx   flac  0.6806  22 Morning Dew.flac
     2:43.719      94302254 B   cxx   --   ---xx   flac  0.6616  23 Encore Break.flac
     6:13.689     215245052 B   cxx   --   ---xx   flac  0.6888  24 US Blues.flac
   171:48.350    5937610764 B                            0.6777  (24 files)



More information about the bittorrent mailing list