[bittorrent] Bobby+TheMidnites1983-11-03.149782.sbd.cm.miller.flac16

Automated Mailer noreply-bt.e at etree.org
Sun May 3 00:36:58 UTC 2020


Band:           Bob Weir
Torrent Name:   Bobby+TheMidnites1983-11-03.149782.sbd.cm.miller.flac16
Uploaded by:    norm
DB Link:        
Details:        http://bt.etree.org/details.php?id=609572

Contact the seeder at http://db.etree.org/norm

If the link to this show does not work, it was probably removed for
being non-trade-friendly.

Description / text file:
-------------------------
Bobby And The Midnites - November 3, 1983
Springfield Civic Center - Springfield, MA

Recording Info:
SBD > Cassette Master (BASF CR2)

Transfer Info:
Cassette Master (Nakamichi CR-7A) > Tascam DA-3000 (DSF 1-bit/5.6MHz) >
dBpoweramp > Samplitude Pro X4 Suite > FLAC/24
(1 DVD FLAC)

All Transfers and Mastering by Charlie Miller
charliemiller87 at earthlink.net
April 24, 2020

-- This file set is 16 bit @ 44.1

Setlist:
01 - Book Of Rules
02 - Fly Away
03 - Youngblood
04 - Victim Or The Crime
05 - Easy To Slip
06 - Live In America
07 - Supplication
08 - Shade Of Grey
09 - Man Smart (Woman Smarter) >
10 - Drums >
11 - Josephine

Encore:
12 - Tuning
13 - Too Many Losers


SHNTOOL OUTPUT:
    length     expanded size    cdr  WAVE problems  fmt   ratio  filename
     3:57.38       41896220 B   ---   --   ---xx   flac  0.6645  01 Book Of Rules.flac
     4:21.11       46066316 B   ---   --   ---xx   flac  0.6790  02 Fly Away.flac
     3:27.24       36571292 B   ---   --   ---xx   flac  0.6561  03 Youngblood.flac
     4:11.74       44450492 B   ---   --   ---xx   flac  0.6789  04 Victim Or The Crime.flac
     6:44.09       71286812 B   ---   --   ---xx   flac  0.6334  05 Easy To Slip.flac
     3:14.32       34296908 B   ---   --   ---xx   flac  0.6894  06 Live In America.flac
     7:32.01       79735196 B   ---   --   ---xx   flac  0.6363  07 Supplication.flac
     4:16.20       45205484 B   ---   --   ---xx   flac  0.6379  08 Shade Of Grey.flac
     5:44.61       60825116 B   ---   --   ---xx   flac  0.6799  09 Man Smart (Woman Smarter).flac
     2:43.29       28821452 B   ---   --   ---xx   flac  0.6748  10 Drums.flac
    12:19.56      130491356 B   ---   --   ---xx   flac  0.6368  11 Josephine.flac
     0:36.50        6468044 B   ---   --   ---xx   flac  0.5340  12 Tuning.flac
     4:32.68       48140780 B   ---   --   ---xx   flac  0.6885  13 Too Many Losers.flac
    63:42.23      674255468 B                            0.6558  (13 files)



More information about the bittorrent mailing list