[bittorrent] Bobby+TheMidnites1983-11-03.149780.sbd.cm.miller.flac24

Automated Mailer noreply-bt.e at etree.org
Sat May 2 23:53:55 UTC 2020


Band:           Bob Weir
Torrent Name:   Bobby+TheMidnites1983-11-03.149780.sbd.cm.miller.flac24
Uploaded by:    norm
DB Link:        
Details:        http://bt.etree.org/details.php?id=609571

Contact the seeder at http://db.etree.org/norm

If the link to this show does not work, it was probably removed for
being non-trade-friendly.

Description / text file:
-------------------------
Bobby And The Midnites - November 3, 1983
Springfield Civic Center - Springfield, MA

Recording Info:
SBD > Cassette Master (BASF CR2)

Transfer Info:
Cassette Master (Nakamichi CR-7A) > Tascam DA-3000 (DSF 1-bit/5.6MHz) >
dBpoweramp > Samplitude Pro X4 Suite > FLAC/24
(1 DVD FLAC)

All Transfers and Mastering by Charlie Miller
charliemiller87 at earthlink.net
April 24, 2020

Setlist:
01 - Book Of Rules
02 - Fly Away
03 - Youngblood
04 - Victim Or The Crime
05 - Easy To Slip
06 - Live In America
07 - Supplication
08 - Shade Of Grey
09 - Man Smart (Woman Smarter) >
10 - Drums >
11 - Josephine

Encore:
12 - Tuning
13 - Too Many Losers


SHNTOOL OUTPUT:
    length     expanded size    cdr  WAVE problems  fmt   ratio  filename
     3:57.514     136808192 B   cxx   --   ---xx   flac  0.7184  01 Book Of Rules.flac
     4:21.141     150417398 B   cxx   --   ---xx   flac  0.7219  02 Fly Away.flac
     3:27.319     119415938 B   cxx   --   ---xx   flac  0.7110  03 Youngblood.flac
     4:11.988     145145312 B   cxx   --   ---xx   flac  0.7148  04 Victim Or The Crime.flac
     6:44.117     232771694 B   cxx   --   ---xx   flac  0.7110  05 Easy To Slip.flac
     3:14.432     111993056 B   cxx   --   ---xx   flac  0.7234  06 Live In America.flac
     7:32.020     260363564 B   cxx   --   ---xx   flac  0.7045  07 Supplication.flac
     4:16.263     147607502 B   cxx   --   ---xx   flac  0.7042  08 Shade Of Grey.flac
     5:44.811     198611216 B   cxx   --   ---xx   flac  0.7169  09 Man Smart (Woman Smarter).flac
     2:43.388      94111340 B   cxx   --   ---xx   flac  0.7189  10 Drums.flac
    12:19.744     426092354 B   cxx   --   ---xx   flac  0.7021  11 Josephine.flac
     0:36.667      21120272 B   cxx   --   ---xx   flac  0.6628  12 Tuning.flac
     4:32.900     157190348 B   cxx   --   ---xx   flac  0.7115  13 Too Many Losers.flac
    63:42.305    2201648186 B                            0.7106  (13 files)



More information about the bittorrent mailing list