[bittorrent] gd1987-07-19.149779.UltraMatrix.sbd.cm.miller.flac16

Automated Mailer noreply-bt.e at etree.org
Sat May 2 22:08:09 UTC 2020


Band:           Grateful Dead
Torrent Name:   gd1987-07-19.149779.UltraMatrix.sbd.cm.miller.flac16
Uploaded by:    norm
DB Link:        
Details:        http://bt.etree.org/details.php?id=609570

Contact the seeder at http://db.etree.org/norm

If the link to this show does not work, it was probably removed for
being non-trade-friendly.

Description / text file:
-------------------------
Grateful Dead - July 19, 1987
Autzen Stadium - Eugene, OR

Recording Info:
UltraMatrix SBD > Cassette Master (TDK MA-R90)

Transfer Info:
Cassette Master (Nakamichi CR-7A) > Tascam DA-3000 (DSF 1-bit/5.6MHz) >
dBpoweramp > Samplitude Pro X4 Suite > FLAC/24
(1 DVD FLAC)

Patch Info:
Unknown Audience Recording (shnid=137294) supplies:
All Along The Watchtower (4:43 - end of track)

All Transfers and Mastering By Charlie Miller
charliemiller87 at earthlink.net
April 29, 2020

Notes:
-- Recorded by Don Pearson and Dan Healy
-- Multiple sets of masters were used to make the GD sets complete
-- Thanks to the GEMS crew for the patch source (last 25 seconds of show)
-- Set 3 + encore is The Grateful Dead with Bob Dylan
-- This file set is 16 bit @ 44.1

Set 1:
01 - Iko Iko
02 - Feel Like A Stranger
03 - Franklin's Tower
04 - New Minglewood Blues
05 - Peggy-O
06 - Addams Family Tuning
07 - When I Paint My Masterpiece
08 - West L.A. Fadeaway
09 - Let It Grow

Set 2:
10 - Gimme Some Lovin' >
11 - Playing In The Band >
12 - He's Gone >
13 - Spoonful >
14 - Drums >
15 - Space >
16 - The Wheel >
17 - Truckin' >
18 - Wharf Rat >
19 - Turn On Your Lovelight

Set 3:
20 - Maggie's Farm
21 - Dead Man, Dead Man
22 - Watching The River Flow
23 - Simple Twist Of Fate
24 - The Ballad Of Frankie Lee And Judas Priest
25 - Stuck Inside Of Mobile With The Memphis Blues Again
26 - Heart Of Mine
27 - It's All Over Now, Baby Blue
28 - Rainy Day Women #12 And #35
29 - Queen Jane Approximately
30 - Ballad Of A Thin Man
31 - Highway 61 Revisited
32 - Tangled Up In Blue

Encore:
33 - Touch Of Grey >
34 - All Along The Watchtower


SHNTOOL OUTPUT:
    length     expanded size    cdr  WAVE problems  fmt   ratio  filename
     9:57.04      105320252 B   ---   --   ---xx   flac  0.5954  01 Iko Iko.flac
     8:03.03       85208300 B   ---   --   ---xx   flac  0.6371  02 Feel Like A Stranger.flac
    12:25.51      131537996 B   ---   --   ---xx   flac  0.5940  03 Franklin's Tower.flac
     8:29.32       89862908 B   ---   --   ---xx   flac  0.6089  04 New Minglewood Blues.flac
     7:06.56       75278156 B   ---   --   ---xx   flac  0.6017  05 Peggy-O.flac
     1:19.16       13973276 B   ---   --   ---xx   flac  0.5459  06 Addams Family Tuning.flac
     4:37.12       48891068 B   ---   --   ---xx   flac  0.6213  07 When I Paint My Masterpiece.flac
     8:47.72       93132188 B   ---   --   ---xx   flac  0.5985  08 West LA Fadeaway.flac
    12:55.43      136811180 B   ---   --   ---xx   flac  0.6130  09 Let It Grow.flac
     5:34.70       59082284 B   ---   --   ---xx   flac  0.6160  10 Gimme Some Lovin'.flac
     6:53.31       72926156 B   ---   --   ---xx   flac  0.6240  11 Playing In The Band.flac
    11:12.23      118594940 B   ---   --   ---xx   flac  0.5893  12 He's Gone.flac
     6:33.04       69334652 B   ---   --   ---xx   flac  0.5835  13 Spoonful.flac
     6:36.30       69925004 B   ---   --   ---xx   flac  0.4952  14 Drums.flac
     6:56.12       73410668 B   ---   --   ---xx   flac  0.5003  15 Space.flac
     4:33.63       48305420 B   ---   --   ---xx   flac  0.6056  16 The Wheel.flac
     6:21.67       67366028 B   ---   --   ---xx   flac  0.6260  17 Truckin'.flac
     9:32.69      101063132 B   ---   --   ---xx   flac  0.5936  18 Wharf Rat.flac
     6:00.03       63511100 B   ---   --   ---xx   flac  0.6300  19 Turn On Your Lovelight.flac
     4:10.38       44189420 B   ---   --   ---xx   flac  0.6322  20 Maggie's Farm.flac
     5:24.49       57268892 B   ---   --   ---xx   flac  0.6348  21 Dead Man, Dead Man.flac
     4:46.43       50551580 B   ---   --   ---xx   flac  0.6354  22 Watching The River Flow.flac
     5:31.36       58473116 B   ---   --   ---xx   flac  0.6179  23 Simple Twist Of Fate.flac
     5:36.25       59329244 B   ---   --   ---xx   flac  0.6101  24 The Ballad Of Frankie Lee And Judas Priest.flac
     6:43.72       71258588 B   ---   --   ---xx   flac  0.6309  25 Stuck Inside Of Mobile With The Memphis Blues Again.flac
     4:48.01       50805596 B   ---   --   ---xx   flac  0.6174  26 Heart Of Mine.flac
     5:21.18       56666780 B   ---   --   ---xx   flac  0.6244  27 It's All Over Now, Baby Blue.flac
     4:58.72       52736588 B   ---   --   ---xx   flac  0.6258  28 Rainy Day Women #12 And #35.flac
     7:06.39       75238172 B   ---   --   ---xx   flac  0.6087  29 Queen Jane Approximately.flac
     5:22.05       56812604 B   ---   --   ---xx   flac  0.6254  30 Ballad Of A Thin Man.flac
     5:50.00       61740044 B   ---   --   ---xx   flac  0.6119  31 Highway 61 Revisited.flac
     7:38.55       80920604 B   ---   --   ---xx   flac  0.6219  32 Tangled Up In Blue.flac
     6:37.47       70141388 B   ---   --   ---xx   flac  0.6194  33 Touch Of Grey.flac
     5:08.29       54399452 B   ---   --   ---xx   flac  0.6203  34 All Along The Watchtower.flac
   229:01.65     2424066776 B                            0.6055  (34 files)



More information about the bittorrent mailing list