[bittorrent] gd1988-12-28.149731.sbd.cm.miller.flac24

Automated Mailer noreply-bt.e at etree.org
Sat May 2 17:58:20 UTC 2020


Band:           Grateful Dead
Torrent Name:   gd1988-12-28.149731.sbd.cm.miller.flac24
Uploaded by:    norm
DB Link:        
Details:        http://bt.etree.org/details.php?id=609566

Contact the seeder at http://db.etree.org/norm

If the link to this show does not work, it was probably removed for
being non-trade-friendly.

Description / text file:
-------------------------
Grateful Dead - December 28, 1988
Oakland Coliseum Arena - Oakland, CA

Recording Info:
UltraMatrix SBD > Cassette Master (TDK MA-XG90)

Transfer Info:
Cassette Master (Nakamichi CR-7A) > Tascam DA-3000 (DSF 1-bit/5.6MHz) >
dBpoweramp > Samplitude Pro X4 Suite > FLAC/24
(1 DVD FLAC)

All Transfers and Mastering By Charlie Miller
charliemiller87 at earthlink.net
April 29, 2020

Notes:
-- Recorded by Don Pearson and Dan Healy
-- Multiple sets of masters were used to make this show complete

Set 1:
01 - Tuning
02 - Iko Iko
03 - Walkin' Blues
04 - Jack-A-Roe
05 - It's All Over Now
06 - When Push Comes To Shove
07 - Stuck Inside of Mobile With The Memphis Blues Again
08 - Bird Song
09 - Jack Straw

Set 2:
10 - China Cat Sunflower >
11 - I Know You Rider
12 - Estimated Prophet >
13 - He's Gone >
14 - Drums >
15 - Space >
16 - Uncle John's Band >
17 - I Need A Miracle >
18 - Foolish Heart >
19 - Turn On Your Lovelight

Encore:
20 - Encore Break
21 - It's All Over Now, Baby Blue


SHNTOOL OUTPUT:
    length     expanded size    cdr  WAVE problems  fmt   ratio  filename
     0:41.574      23946596 B   cxx   --   ---xx   flac  0.6533  01 Tuning.flac
     6:07.019     211403216 B   cxx   --   ---xx   flac  0.6975  02 Iko Iko.flac
     8:48.477     304402904 B   cxx   --   ---xx   flac  0.6765  03 Walkin' Blues.flac
     5:17.646     182964062 B   cxx   --   ---xx   flac  0.6842  04 Jack-A-Roe.flac
     7:46.821     268888670 B   cxx   --   ---xx   flac  0.6758  05 It's All Over Now.flac
     5:50.144     201683192 B   cxx   --   ---xx   flac  0.6705  06 When Push Comes To Shove.flac
     9:30.366     328530992 B   cxx   --   ---xx   flac  0.6650  07 Stuck Inside Of Mobile With The Memphis Blues Again.flac
    12:47.370     442005380 B   cxx   --   ---xx   flac  0.6589  08 Bird Song.flac
     5:34.211     192505754 B   cxx   --   ---xx   flac  0.6635  09 Jack Straw.flac
     6:37.409     228907856 B   cxx   --   ---xx   flac  0.6881  10 China Cat Sunflower.flac
     5:46.531     199601648 B   cxx   --   ---xx   flac  0.6877  11 I Know You Rider.flac
    10:48.858     373742048 B   cxx   --   ---xx   flac  0.6794  12 Estimated Prophet.flac
     9:26.793     326472704 B   cxx   --   ---xx   flac  0.6720  13 He's Gone.flac
     9:47.022     338124476 B   cxx   --   ---xx   flac  0.6149  14 Drums.flac
     8:20.395     288227402 B   cxx   --   ---xx   flac  0.6287  15 Space.flac
     7:34.711     261913610 B   cxx   --   ---xx   flac  0.6876  16 Uncle John's Band.flac
     6:07.994     211964738 B   cxx   --   ---xx   flac  0.6860  17 I Need A Miracle.flac
     8:21.869     289076708 B   cxx   --   ---xx   flac  0.6859  18 Foolish Heart.flac
     7:49.283     270306854 B   cxx   --   ---xx   flac  0.6786  19 Turn On Your Lovelight.flac
     3:18.891     114561398 B   cxx   --   ---xx   flac  0.5044  20 Encore Break.flac
     7:31.127     259849166 B   cxx   --   ---xx   flac  0.6820  21 It's All Over Now, Baby Blue.flac
   153:54.511    5319079374 B                            0.6670  (21 files)



More information about the bittorrent mailing list