[bittorrent] gd1991-09-09.149749.sbd.cm.miller.flac24

Automated Mailer noreply-bt.e at etree.org
Sat May 2 15:50:00 UTC 2020


Band:           Grateful Dead
Torrent Name:   gd1991-09-09.149749.sbd.cm.miller.flac24
Uploaded by:    norm
DB Link:        
Details:        http://bt.etree.org/details.php?id=609562

Contact the seeder at http://db.etree.org/norm

If the link to this show does not work, it was probably removed for
being non-trade-friendly.

Description / text file:
-------------------------
Grateful Dead - September 9, 1991
Madison Square Garden - New York, NY

Recording Info:
SBD > Cassette Master (TDK SA-X100)

Transfer Info:
Cassette Master (Nakamichi CR-7A) > Tascam DA-3000 (DSF 1-bit/5.6MHz) >
dBpoweramp > Samplitude Pro X4 Suite > FLAC/24
(1 DVD FLAC)

All Transfers and Mastering By Charlie Miller
charliemiller87 at earthlink.net
April 30, 2020

Notes:
-- Recorded by Don Pearson and Dan Healy
-- Multiple sets of masters were used to make this show complete

Set 1:
01 - Tuning
02 - Picasso Moon >
03 - Sugaree
04 - Me And My Uncle >
05 - Mexicali Blues
06 - They Love Each Other
07 - Stuck Inside Of Mobile With The Memphis Blues Again
08 - Loose Lucy >
09 - The Music Never Stopped

Set 2:
10 - Tuning
11 - Iko Iko >
12 - Looks Like Rain >
13 - New Speedway Boogie >
14 - Playing In The Band Reprise >
15 - Uncle John's Band >
16 - Drums >
17 - Space >
18 - The Last Time >
19 - Morning Dew

Encore:
20 - Encore Break
21 - The Mighty Quinn (Quinn The Eskimo)


SHNTOOL OUTPUT:
    length     expanded size    cdr  WAVE problems  fmt   ratio  filename
     2:11.063      75492050 B   cxx   --   ---xx   flac  0.4889  01 Tuning.flac
     6:36.568     228423320 B   cxx   --   ---xx   flac  0.6801  02 Picasso Moon.flac
    12:03.056     416480144 B   cxx   --   ---xx   flac  0.6515  03 Sugaree.flac
     3:13.656     111545630 B   cxx   --   ---xx   flac  0.6704  04 Me And My Uncle.flac
     5:55.256     204627230 B   cxx   --   ---xx   flac  0.6627  05 Mexicali Blues.flac
     8:55.772     308604488 B   cxx   --   ---xx   flac  0.6487  06 They Love Each Other.flac
    10:54.143     376786166 B   cxx   --   ---xx   flac  0.6429  07 Stuck Inside Of Mobile With The Memphis Blues Again.flac
     6:36.181     228200126 B   cxx   --   ---xx   flac  0.6744  08 Loose Lucy.flac
     7:20.661     253820510 B   cxx   --   ---xx   flac  0.6651  09 The Music Never Stopped.flac
     1:33.124      53639630 B   cxx   --   ---xx   flac  0.4279  10 Tuning.flac
     7:46.919     268945550 B   cxx   --   ---xx   flac  0.6669  11 Iko Iko.flac
     8:55.815     308629442 B   cxx   --   ---xx   flac  0.6498  12 Looks Like Rain.flac
     7:07.698     246354146 B   cxx   --   ---xx   flac  0.6667  13 New Speedway Boogie.flac
    10:21.393     357922256 B   cxx   --   ---xx   flac  0.6610  14 Playing In The Band Reprise.flac
     8:43.853     301739246 B   cxx   --   ---xx   flac  0.6592  15 Uncle John's Band.flac
    10:56.551     378173150 B   cxx   --   ---xx   flac  0.6142  16 Drums.flac
    12:21.074     426858770 B   cxx   --   ---xx   flac  0.6258  17 Space.flac
     6:22.649     220405958 B   cxx   --   ---xx   flac  0.6690  18 The Last Time.flac
    11:32.349     398792924 B   cxx   --   ---xx   flac  0.6451  19 Morning Dew.flac
     2:02.061      70306916 B   cxx   --   ---xx   flac  0.5488  20 Encore Break.flac
     4:40.709     161688404 B   cxx   --   ---xx   flac  0.6687  21 The Mighty Quinn (Quinn The Eskimo).flac
   156:10.547    5397436056 B                            0.6471  (21 files)



More information about the bittorrent mailing list