[bittorrent] Bobby Lee Rodgers Trio The Hunt House House Marietta, Georgia 5/1/2020 (Schoeps CCM4V'S FOB)

Automated Mailer noreply-bt.e at etree.org
Sat May 2 03:11:04 UTC 2020


Band:           Other
Torrent Name:   Bobby Lee Rodgers Trio The Hunt House House Marietta, Georgia 5/1/2020 (Schoeps CCM4V'S FOB)
Uploaded by:    zmanatl
DB Link:        
Details:        http://bt.etree.org/details.php?id=609559

Contact the seeder at http://db.etree.org/zmanatl

If the link to this show does not work, it was probably removed for
being non-trade-friendly.

Description / text file:
-------------------------
Bobby Lee Rodgers Trio
The Hunt House House
Marietta, Georgia
5/1/2020

Source: Source: Schoeps CCM4V'S>Lunatec V2>Sound Devices 722 (24/44.1)
FOB/DFc/KFC/ZFC/AARP 8' From Stage, 6 1/2' High
DSP: Sound Devices 722>Sound Forge 10.0>CD Wave>flac(16)
ID3 Tagged In Foobar 2000
Recorded By: Z-Man 
Seeded By: Z-Man
A Team Dirty South Recording

Disc I 

01 Ike Stubblefield
02 ?
03 Invisable Prison
04 When The World Comes Tumblin' Down >
05 Drum Solo >
06 When The World Comes Tumblin' Down
07 Outer Space
08 ? 
09 So Good To See Ya

Bobby Lee rogers - Guitar And Vocals
Brian "Taze" Tate - Bass
Brian "Faze" Lange - Drums

bobby2020-05-01d01t01.flac:6e1a675955dd4b76b48c9642328b805b
bobby2020-05-01d01t02.flac:ac69e1ea235ed53b1ff9f0af076e4c2a
bobby2020-05-01d01t03.flac:5153bcb3413882eb07e18988068d3f0a
bobby2020-05-01d01t04.flac:b0fd994bf3260ccb987fd207277aa569
bobby2020-05-01d01t05.flac:356fbf152b2913f88283542c20e146d4
bobby2020-05-01d01t06.flac:c83ec928e9b1fea6920b64578617ad44
bobby2020-05-01d01t07.flac:770e5f832bb7f0c30f1e9769085d6d41
bobby2020-05-01d01t08.flac:15bbad9c96252a58e6cbe650212a443e
bobby2020-05-01d01t09.flac:95e98ebd40dcac9d21a000dddca65306

 length     expanded size    cdr  WAVE problems  fmt   ratio  filename
     8:18.66       88002476 B   ---   --   ---xx   flac  0.5368  bobby2020-05-01d01t01.flac
    11:36.30      122845004 B   ---   --   ---xx   flac  0.5482  bobby2020-05-01d01t02.flac
     9:11.68       97356380 B   ---   --   ---xx   flac  0.5524  bobby2020-05-01d01t03.flac
     3:23.54       35936252 B   ---   --   ---xx   flac  0.5701  bobby2020-05-01d01t04.flac
     1:28.56       15654956 B   ---   --   ---xx   flac  0.5283  bobby2020-05-01d01t05.flac
     2:08.65       22732124 B   ---   --   ---xx   flac  0.5800  bobby2020-05-01d01t06.flac
    12:56.66      137041676 B   ---   --   ---xx   flac  0.5279  bobby2020-05-01d01t07.flac
    10:13.40      108227324 B   ---   --   ---xx   flac  0.5774  bobby2020-05-01d01t08.flac
    10:53.39      115280972 B   ---   --   ---xx   flac  0.5095  bobby2020-05-01d01t09.flac
    70:12.34      743077164 B                            0.5435  (9 files)






More information about the bittorrent mailing list