[bittorrent] bw+rw1991-09-28.149753.sbd.cm.miller.flac24

Automated Mailer noreply-bt.e at etree.org
Fri May 1 22:57:34 UTC 2020


Band:           Bob Weir
Torrent Name:   bw+rw1991-09-28.149753.sbd.cm.miller.flac24
Uploaded by:    norm
DB Link:        
Details:        http://bt.etree.org/details.php?id=609556

Contact the seeder at http://db.etree.org/norm

If the link to this show does not work, it was probably removed for
being non-trade-friendly.

Description / text file:
-------------------------
Bob Weir & Rob Wasserman - September 28, 1991
The Ritz - New York, NY

Recording Info:
SBD > Cassette Master (TDK SA-X100)

Transfer Info:
Cassette Master (Nakamichi CR-7A) > Tascam DA-3000 (DSF 1-bit/5.6MHz) >
dBpoweramp > Adobe Audition CC 2015 > Samplitude Pro X4 Suite > FLAC/24
(1 DVD FLAC)

All Transfers and Mastering by Charlie Miller
charliemiller87 at earthlink.net
April 26, 2020

Notes:
-- The tape runs out during Josephine

Setlist:
01 - Introduction
02 - Bombs Away
03 - Walkin' Blues
04 - Take Me To The River
05 - City Girls
06 - Fever
07 - Eternity
08 - K.C. Moan
09 - Desolation Row
10 - Artificial Flowers
11 - Looks Like Rain
12 - The Winners
13 - Heaven Help The Fool
14 - Bass Solo
15 - (I Can't Get No) Satisfaction
16 - Victim Or The Crime
17 - Josephine (cut)


SHNTOOL OUTPUT:
    length     expanded size    cdr  WAVE problems  fmt   ratio  filename
     1:14.803      43086638 B   cxx   --   ---xx   flac  0.6497  01 Introduction.flac
     5:35.266     193113242 B   cxx   --   ---xx   flac  0.6719  02 Bombs Away.flac
     4:30.325     155707406 B   cxx   --   ---xx   flac  0.6559  03 Walkin' Blues.flac
     4:17.068     148071068 B   cxx   --   ---xx   flac  0.6722  04 Take Me To The River.flac
     3:54.961     135337532 B   cxx   --   ---xx   flac  0.6627  05 City Girls.flac
     4:26.910     153739928 B   cxx   --   ---xx   flac  0.6452  06 Fever.flac
     3:55.312     135539960 B   cxx   --   ---xx   flac  0.6520  07 Eternity.flac
     2:31.408      87210872 B   cxx   --   ---xx   flac  0.6755  08 KC Moan.flac
     9:22.321     323896790 B   cxx   --   ---xx   flac  0.6719  09 Desolation Row.flac
     3:24.796     117962468 B   cxx   --   ---xx   flac  0.6813  10 Artificial Flowers.flac
     7:20.280     253601510 B   cxx   --   ---xx   flac  0.6632  11 Looks Like Rain.flac
     4:04.660     140924192 B   cxx   --   ---xx   flac  0.6694  12 The Winners.flac
     6:59.601     241689956 B   cxx   --   ---xx   flac  0.6614  13 Heaven Healp The Fool.flac
    12:44.713     440474942 B   cxx   --   ---xx   flac  0.6121  14 Bass Solo.flac
     3:56.455     136198088 B   cxx   --   ---xx   flac  0.6399  15 (I Can't Get No) Satisfaction.flac
     7:06.293     245545040 B   cxx   --   ---xx   flac  0.6374  16 Victim Or The Crime.flac
     1:50.957      63911270 B   cxx   --   ---xx   flac  0.6526  17 Josephine.flac
    87:16.129    3016010902 B                            0.6535  (17 files)



More information about the bittorrent mailing list