[bittorrent] gd1990-12-14.149757.UltraMatrix.sbd.cm.miller.flac16

Automated Mailer noreply-bt.e at etree.org
Fri May 1 22:42:22 UTC 2020


Band:           Grateful Dead
Torrent Name:   gd1990-12-14.149757.UltraMatrix.sbd.cm.miller.flac16
Uploaded by:    norm
DB Link:        
Details:        http://bt.etree.org/details.php?id=609555

Contact the seeder at http://db.etree.org/norm

If the link to this show does not work, it was probably removed for
being non-trade-friendly.

Description / text file:
-------------------------
Grateful Dead - December 14, 1990
McNichols Arena - Denver, CO

Recording Info:
UltraMatrix SBD > Cassette Master (TDK SA-X100)

Transfer Info:
Cassette Master (Nakamichi CR-7A) > Tascam DA-3000 (DSF 1-bit/5.6MHz) >
dBpoweramp > Adobe Audition CC 2015 > Samplitude Pro X4 Suite > FLAC/24
(1 DVD FLAC)

All Transfers and Mastering by Charlie Miller
charliemiller87 at earthlink.net
April 18, 2020

Notes:
-- Recorded by Don Pearson and Dan Healy
-- Multiple sets of masters were used to make this show complete
-- This file set is 16 bit @ 44.1

Set 1:
01 - Tuning
02 - Shakedown Street
03 - Picasso Moon
04 - Peggy-O
05 - Little Red Rooster
06 - Stagger Lee
07 - When I Paint My Masterpiece
08 - To Lay Me Down
09 - Let It Grow

Set 2:
10 - Tuning
11 - Victim Or The Crime >
12 - Foolish Heart >
13 - Man Smart (Woman Smarter) >
14 - He's Gone >
15 - Drums >
16 - Space >
17 - Dark Star >
18 - I Need A Miracle >
19 - Wharf Rat >
20 - Turn On Your Lovelight

Encore:
21 - Encore Break
22 - Knockin' On Heaven's Door


SHNTOOL OUTPUT:
   length     expanded size    cdr  WAVE problems  fmt   ratio  filename
    1:20.17       14152028 B   ---   --   ---xx   flac  0.4802  01 Tuning.flac
   13:18.45      140873084 B   ---   --   ---xx   flac  0.5984  02 Shakedown Street.flac
    8:12.24       86845292 B   ---   --   ---xx   flac  0.6039  03 Picasso Moon.flac
    6:42.17       70952828 B   ---   --   ---xx   flac  0.5589  04 Peggy-O.flac
    9:09.25       96902444 B   ---   --   ---xx   flac  0.5798  05 Little Red Rooster.flac
    5:44.18       60723980 B   ---   --   ---xx   flac  0.6076  06 Stagger Lee.flac
    5:37.16       59484476 B   ---   --   ---xx   flac  0.5756  07 When I Paint My Masterpiece.flac
    8:42.21       92130236 B   ---   --   ---xx   flac  0.5592  08 To Lay Me Down.flac
   12:09.07      128612108 B   ---   --   ---xx   flac  0.6042  09 Let It Grow.flac
    1:34.01       16583996 B   ---   --   ---xx   flac  0.4794  10 Tuning.flac
    8:20.71       88367036 B   ---   --   ---xx   flac  0.6144  11 Victim Or The Crime.flac
    9:37.69      101945132 B   ---   --   ---xx   flac  0.6119  12 Foolish Heart.flac
    6:49.39       72239372 B   ---   --   ---xx   flac  0.6064  13 Man Smart (Woman Smarter).flac
   15:18.58      162071660 B   ---   --   ---xx   flac  0.5774  14 He's Gone.flac
    8:16.46       87602636 B   ---   --   ---xx   flac  0.5241  15 Drums.flac
    8:25.73       89253740 B   ---   --   ---xx   flac  0.5161  16 Space.flac
    8:40.54       91855052 B   ---   --   ---xx   flac  0.5479  17 Dark Star.flac
    4:44.12       50125868 B   ---   --   ---xx   flac  0.6261  18 I Need A Miracle.flac
    9:59.69      105825932 B   ---   --   ---xx   flac  0.5673  19 Wharf Rat.flac
    6:01.57       63814508 B   ---   --   ---xx   flac  0.6069  20 Turn On Your Lovelight.flac
    2:03.39       21788972 B   ---   --   ---xx   flac  0.4914  21 Encore Break.flac
    8:03.10       85224764 B   ---   --   ---xx   flac  0.5506  22 Knockin' On Heaven's Door.flac
  168:52.38     1787375144 B                            0.5773  (22 files)



More information about the bittorrent mailing list