[bittorrent] gd1982-09-09.149747.beyer.tompkins.flac2448

Automated Mailer noreply-bt.e at etree.org
Fri May 1 12:17:54 UTC 2020


Band:           Grateful Dead
Torrent Name:   gd1982-09-09.149747.beyer.tompkins.flac2448
Uploaded by:    nfagdtrfb
DB Link:        
Details:        http://bt.etree.org/details.php?id=609550

Contact the seeder at http://db.etree.org/nfagdtrfb

If the link to this show does not work, it was probably removed for
being non-trade-friendly.

Description / text file:
-------------------------
GRATEFUL DEAD
Saenger Theatre
New Orleans LA
09-09-1982

s1t01 Mississippi Half-Step >
s1t02 Franklin's Tower >
s1t03 Feel Like a Stranger
s1t04 West L.A. Fadeaway
s1t05 Mama Tried >
s1t06 Mexicali Blues
s1t07 Althea

s2t01 /Uncle John's Band >
s2t02 Samson & Delilah >
s2t03 Uncle John's Band Reprise >
s2t04 Estimated Prophet >
s2t05 Eyes of the World >
s2t06 Drums >
s2t07 Space >
s2t08 The Wheel >
s2t09 The Other One >
s2t10 Wharf Rat >
s2t11 Good Lovin'
s2t12 Encore: Keep Your Day Job >
s2t13 Encore: Johnny B. Goode

Source: Set One & Encore, Unknown AUD > MAC > 1st Gen copy (see 
note) and; Set Two, Beyers-Dynamic M160's > Sony TC-D5 > MAC. 
Recording by Rip Tompkins & with thanks to Richie Stankiewicz!

Transfer: TDK MA-90's > Nakamichi CR-5A > Edirol FA-66 > Wavelab 
2448 > CD-Wave (24bit output) > TLH > FLAC 2448 tagged. Transfer 
by Andrew F. 04/2020

Note: Apparently, there was an issue with Tape #1; Rip recorded 
over the MAC with 1st Set & Encore from another taper. This 2nd 
Set MAC matches Streeter's, but derives from the lead deck(?) 
and does not have the levels issues and channel drop-outs found 
on that source. ID-123191 patch (mono) end of Drums 5:28 > 6:22.

    length     expanded size    cdr  WAVE problems  fmt   ratio  filename
     7:47.827     134734124 B   cxx   --   ---xx   flac  0.7415  gd1982-09-09s1t01.flac
     7:47.560     134657324 B   cxx   --   ---xx   flac  0.7509  gd1982-09-09s1t02.flac
     7:03.240     121893164 B   cxx   --   ---xx   flac  0.7469  gd1982-09-09s1t03.flac
     6:49.240     117861164 B   cxx   --   ---xx   flac  0.7516  gd1982-09-09s1t04.flac
     2:34.667      44544044 B   cxx   --   ---xx   flac  0.7536  gd1982-09-09s1t05.flac
     5:12.027      89863724 B   cxx   --   ---xx   flac  0.7582  gd1982-09-09s1t06.flac
     8:19.542     143868050 B   cxx   --   ---xx   flac  0.7529  gd1982-09-09s1t07.flac
     6:34.733     113683244 B   cxx   --   ---xx   flac  0.7541  gd1982-09-09s2t01.flac
     6:14.280     107792684 B   cxx   --   ---xx   flac  0.7690  gd1982-09-09s2t02.flac
     1:50.813      31914284 B   cxx   --   ---xx   flac  0.7616  gd1982-09-09s2t03.flac
    11:25.267     197356844 B   cxx   --   ---xx   flac  0.7529  gd1982-09-09s2t04.flac
     8:58.120     154978604 B   cxx   --   ---xx   flac  0.7609  gd1982-09-09s2t05.flac
     6:22.187     110069804 B   cxx   --   ---xx   flac  0.7048  gd1982-09-09s2t06.flac
     5:53.053     101679404 B   cxx   --   ---xx   flac  0.6944  gd1982-09-09s2t07.flac
     6:05.253     105193004 B   cxx   --   ---xx   flac  0.7389  gd1982-09-09s2t08.flac
     6:58.947     120656684 B   cxx   --   ---xx   flac  0.7507  gd1982-09-09s2t09.flac
     9:49.667     169824044 B   cxx   --   ---xx   flac  0.7351  gd1982-09-09s2t10.flac
     8:09.920     141097004 B   cxx   --   ---xx   flac  0.7544  gd1982-09-09s2t11.flac
     5:28.000      94464044 B   cxx   --   ---xx   flac  0.7639  gd1982-09-09s2t12.flac
     3:56.179      68019704 B   cxx   --   ---xx   flac  0.7639  gd1982-09-09s2t13.flac
   133:20.521    2304150946 B                            0.7473  (20 files)

No errors occured.




More information about the bittorrent mailing list