[bittorrent] gd1990-12-14.149608.UltraMatrix.sbd.cm.miller.flac24

Automated Mailer noreply-bt.e at etree.org
Fri May 1 02:50:02 UTC 2020


Band:           Grateful Dead
Torrent Name:   gd1990-12-14.149608.UltraMatrix.sbd.cm.miller.flac24
Uploaded by:    norm
DB Link:        
Details:        http://bt.etree.org/details.php?id=609540

Contact the seeder at http://db.etree.org/norm

If the link to this show does not work, it was probably removed for
being non-trade-friendly.

Description / text file:
-------------------------
Grateful Dead - December 14, 1990
McNichols Arena - Denver, CO

Recording Info:
UltraMatrix SBD > Cassette Master (TDK SA-X100)

Transfer Info:
Cassette Master (Nakamichi CR-7A) > Tascam DA-3000 (DSF 1-bit/5.6MHz) >
dBpoweramp > Adobe Audition CC 2015 > Samplitude Pro X4 Suite > FLAC/24
(1 DVD FLAC)

All Transfers and Mastering by Charlie Miller
charliemiller87 at earthlink.net
April 18, 2020

Notes:
-- Recorded by Don Pearson and Dan Healy
-- Multiple sets of masters were used to make this show complete

Set 1:
01 - Tuning
02 - Shakedown Street
03 - Picasso Moon
04 - Peggy-O
05 - Little Red Rooster
06 - Stagger Lee
07 - When I Paint My Masterpiece
08 - To Lay Me Down
09 - Let It Grow

Set 2:
10 - Tuning
11 - Victim Or The Crime >
12 - Foolish Heart >
13 - Man Smart (Woman Smarter) >
14 - He's Gone >
15 - Drums >
16 - Space >
17 - Dark Star >
18 - I Need A Miracle >
19 - Wharf Rat >
20 - Turn On Your Lovelight

Encore:
21 - Encore Break
22 - Knockin' On Heaven's Door


SHNTOOL OUTPUT:
    length     expanded size    cdr  WAVE problems  fmt   ratio  filename
     1:20.233      46214084 B   cxx   --   ---xx   flac  0.6346  01 Tuning.flac
    13:18.607     459997700 B   cxx   --   ---xx   flac  0.6721  02 Shakedown Street.flac
     8:12.311     283571018 B   cxx   --   ---xx   flac  0.6752  03 Picasso Moon.flac
     6:42.231     231684962 B   cxx   --   ---xx   flac  0.6666  04 Peggy-O.flac
     9:09.327     316412504 B   cxx   --   ---xx   flac  0.6684  05 Little Red Rooster.flac
     5:44.249     198287282 B   cxx   --   ---xx   flac  0.6683  06 Stagger Lee.flac
     5:37.208     194231660 B   cxx   --   ---xx   flac  0.6497  07 When I Paint My Masterpiece.flac
     8:42.285     300836444 B   cxx   --   ---xx   flac  0.6689  08 To Lay Me Down.flac
    12:09.096     419959136 B   cxx   --   ---xx   flac  0.6738  09 Let It Grow.flac
     1:34.001      54144698 B   cxx   --   ---xx   flac  0.6328  10 Tuning.flac
     8:20.952     288548342 B   cxx   --   ---xx   flac  0.6801  11 Victim Or The Crime.flac
     9:37.926     332885330 B   cxx   --   ---xx   flac  0.6787  12 Foolish Heart.flac
     6:49.510     235878038 B   cxx   --   ---xx   flac  0.6775  13 Man Smart (Woman Smarter).flac
    15:18.778     529216388 B   cxx   --   ---xx   flac  0.6690  14 He's Gone.flac
     8:16.615     286050224 B   cxx   --   ---xx   flac  0.6587  15 Drums.flac
     8:25.969     291437996 B   cxx   --   ---xx   flac  0.6454  16 Space.flac
     8:40.718     299933426 B   cxx   --   ---xx   flac  0.6705  17 Dark Star.flac
     4:44.166     163679594 B   cxx   --   ---xx   flac  0.6825  18 I Need A Miracle.flac
     9:59.916     345551750 B   cxx   --   ---xx   flac  0.6648  19 Wharf Rat.flac
     6:01.757     208371950 B   cxx   --   ---xx   flac  0.6734  20 Turn On Your Lovelight.flac
     2:03.530      71153042 B   cxx   --   ---xx   flac  0.6429  21 Encore Break.flac
     8:03.122     278278496 B   cxx   --   ---xx   flac  0.6614  22 Knockin' On Heaven's Door.flac
   168:52.505    5836324064 B                            0.6679  (22 files)



More information about the bittorrent mailing list