[bittorrent] gd1990-12-13.149746.UltraMatrix.sbd.cm.miller.flac16

Automated Mailer noreply-bt.e at etree.org
Fri May 1 01:56:16 UTC 2020


Band:           Grateful Dead
Torrent Name:   gd1990-12-13.149746.UltraMatrix.sbd.cm.miller.flac16
Uploaded by:    norm
DB Link:        
Details:        http://bt.etree.org/details.php?id=609539

Contact the seeder at http://db.etree.org/norm

If the link to this show does not work, it was probably removed for
being non-trade-friendly.

Description / text file:
-------------------------
Grateful Dead - December 13, 1990
McNichols Arena - Denver, CO

Recording Info:
UltraMatrix SBD > Cassette Master (TDK SA-X100)

Transfer Info:
Cassette Master (Nakamichi CR-7A) > Tascam DA-3000 (DSF 1-bit/5.6MHz) >
KORG AudioGate 4 > Adobe Audition CC 2015 > Samplitude Pro X4 Suite > FLAC/24
(1 DVD FLAC)

All Transfers and Mastering By Charlie Miller
charliemiller87 at earthlink.net
April 16, 2020

Notes:
-- Recorded by Don Pearson and Dan Healy
-- UltraMatrix DAT Masters were used to cover the tape flips
-- This file set is 16 bit @ 44.1

Set 1:
01 - Tuning
02 - Jack Straw >
03 - Sugaree
04 - Wang Dang Doodle
05 - Friend Of The Devil
06 - Me And My Uncle >
07 - Big River
08 - Ramble On Rose
09 - Stuck Inside Of Mobile With The Memphis Blues Again
10 - Valley Road

Set 2:
11 - Tuning
12 - Help On The Way >
13 - Slipknot >
14 - Franklin's Tower
15 - Saint Of Circumstance
16 - Eyes Of The World >
17 - Drums >
18 - Space >
19 - The Other One >
20 - Morning Dew
21 - Box Of Rain

Encore:
22 - Encore Break
23 - U.S. Blues


SHNTOOL OUTPUT:
    length     expanded size    cdr  WAVE problems  fmt   ratio  filename
     0:58.58       10367660 B   ---   --   ---xx   flac  0.4565  01 Tuning.flac
     6:22.16       67422476 B   ---   --   ---xx   flac  0.6367  02 Jack Straw.flac
    13:17.68      140750780 B   ---   --   ---xx   flac  0.5899  03 Sugaree.flac
     8:05.38       85643420 B   ---   --   ---xx   flac  0.5817  04 Wang Dang Doodle.flac
     9:01.15       95467724 B   ---   --   ---xx   flac  0.5855  05 Friend Of The Devil.flac
     3:10.13       33546620 B   ---   --   ---xx   flac  0.6301  06 Me And My Uncle.flac
     6:38.33       70284860 B   ---   --   ---xx   flac  0.6138  07 Big River.flac
     7:40.65       81296924 B   ---   --   ---xx   flac  0.5956  08 Ramble On Rose.flac
     9:24.12       99517868 B   ---   --   ---xx   flac  0.6155  09 Stuck Inside Of Mobile With The Memphis Blues Again.flac
     5:22.15       56836124 B   ---   --   ---xx   flac  0.6265  10 Valley Road.flac
     0:41.28        7298300 B   ---   --   ---xx   flac  0.4638  11 Tuning.flac
     4:24.56       46701356 B   ---   --   ---xx   flac  0.6098  12 Help On The Way.flac
     4:34.69       48495932 B   ---   --   ---xx   flac  0.6059  13 Slipknot!.flac
     9:07.59       96629612 B   ---   --   ---xx   flac  0.5972  14 Franklin's Tower.flac
     6:11.13       65475020 B   ---   --   ---xx   flac  0.6295  15 Saint Of Circumstance.flac
    12:16.72      129999788 B   ---   --   ---xx   flac  0.5928  16 Eyes Of The World.flac
     9:44.71      103184636 B   ---   --   ---xx   flac  0.4935  17 Drums.flac
     9:11.73       97368140 B   ---   --   ---xx   flac  0.4775  18 Space.flac
     7:35.48       80374940 B   ---   --   ---xx   flac  0.5994  19 The Other One.flac
    11:37.46      123059036 B   ---   --   ---xx   flac  0.5681  20 Morning Dew.flac
     4:43.68       50081180 B   ---   --   ---xx   flac  0.6192  21 Box Of Rain.flac
     2:24.16       25439276 B   ---   --   ---xx   flac  0.4415  22 Encore Break.flac
     5:31.41       58484876 B   ---   --   ---xx   flac  0.6161  23 US Blues.flac
   158:08.18     1673726548 B                            0.5837  (23 files)



More information about the bittorrent mailing list